<?xml version="1.0" standalone="no"?>
<!DOCTYPE svg PUBLIC "-//W3C//DTD SVG 1.1//EN" "http://www.w3.org/Graphics/SVG/1.1/DTD/svg11.dtd" >
<svg xmlns="http://www.w3.org/2000/svg">
<metadata></metadata>
<defs>
<font id="effrabold" horiz-adv-x="1116" >
<font-face units-per-em="2048" ascent="1638" descent="-410" />
<missing-glyph horiz-adv-x="370" />
<glyph unicode="&#xfb01;" horiz-adv-x="1198" d="M29 729v232h155v12q0 95 27.5 170t73.5 123t111 79.5t134.5 44.5t149.5 13q98 0 203.5 -27t187.5 -76l-110 -202q-139 73 -273 73q-104 0 -157.5 -39t-53.5 -128v-43h602v-961h-293v729h-309v-729h-293v729h-155z" />
<glyph unicode="&#xfb02;" horiz-adv-x="1200" d="M29 729v232h155v24q0 113 38.5 196t107.5 130.5t154 69.5t188 22q119 0 232 -32t186 -75v-1296h-293v1149q-47 20 -135 20q-97 0 -141 -40t-44 -132v-36h205v-232h-205v-729h-293v729h-155z" />
<glyph unicode="&#xfb03;" horiz-adv-x="1835" d="M29 729v232h155v32q0 106 32.5 187.5t88 128.5t122.5 70.5t142 23.5q147 0 256 -86l-108 -193q-59 41 -117 41q-54 0 -89.5 -36t-35.5 -109v-59h346v12q0 93 27 167t72 122.5t108.5 80.5t133 46t147.5 14q103 0 210 -26.5t189 -76.5l-111 -202q-139 73 -272 73 q-105 0 -158 -41t-53 -141v-28h602v-961h-293v729h-309v-729h-293v729h-342v-729h-295v729h-155z" />
<glyph unicode="&#xfb04;" horiz-adv-x="1837" d="M29 729v232h155v49q0 97 33.5 174.5t89 124t122.5 70.5t140 24q147 0 256 -86l-108 -193q-59 41 -117 41q-54 0 -89.5 -36t-35.5 -109v-59h346v24q0 113 38.5 196t107.5 130.5t154 69.5t188 22q118 0 231 -32t186 -75v-1296h-292v1149q-47 20 -136 20q-97 0 -140.5 -40 t-43.5 -132v-36h205v-232h-205v-729h-293v729h-342v-729h-295v729h-155z" />
<glyph horiz-adv-x="2048" />
<glyph horiz-adv-x="2048" />
<glyph unicode="&#xd;" horiz-adv-x="2048" />
<glyph unicode=" "  horiz-adv-x="370" />
<glyph unicode="&#x09;" horiz-adv-x="370" />
<glyph unicode="&#xa0;" horiz-adv-x="370" />
<glyph unicode="!" horiz-adv-x="598" d="M137 0v315h322v-315h-322zM137 1366h324l-12 -922h-299z" />
<glyph unicode="&#x22;" horiz-adv-x="864" d="M96 856v510h273v-510h-273zM494 856v510h272v-510h-272z" />
<glyph unicode="#" horiz-adv-x="1492" d="M109 297v207h245l72 266h-190v207h245l84 311h232l-84 -311h254l84 311h231l-84 -311h184v-207h-239l-72 -266h184v-207h-239l-80 -297h-231l79 297h-254l-79 -297h-232l80 297h-190zM586 504h254l71 266h-254z" />
<glyph unicode="$" d="M20 184l185 205q68 -71 160.5 -117.5t201.5 -46.5q48 0 87.5 11t68.5 42t29 78q0 62 -58 100t-202 74l-50 17q-358 102 -358 385q0 157 100.5 256.5t280.5 122.5v182h197v-182q197 -26 344 -164l-177 -197q-129 113 -264 113q-46 0 -88 -12t-74 -41.5t-32 -71.5 q0 -62 55.5 -94.5t194.5 -67.5q67 -16 123 -36.5t113 -55t96.5 -78t64 -107t24.5 -139.5q0 -153 -106.5 -253.5t-273.5 -126.5v-199h-197v190q-140 13 -253.5 71t-191.5 142z" />
<glyph unicode="%" horiz-adv-x="1894" d="M98 954q0 173 87.5 271t242.5 98t242.5 -98t87.5 -271q0 -174 -87.5 -273t-242.5 -99t-242.5 99t-87.5 273zM319 954q0 -89 28 -141.5t81 -52.5t81 52.5t28 141.5q0 87 -28 140t-81 53t-81 -53t-28 -140zM399 0l824 1290h256l-820 -1290h-260zM1133 352q0 173 87 271 t242 98t242.5 -98t87.5 -271q0 -174 -87.5 -273t-242.5 -99t-242 99t-87 273zM1354 352q0 -89 27.5 -141.5t80.5 -52.5t81 52.5t28 141.5q0 87 -28 140t-81 53q-52 0 -80 -52.5t-28 -140.5z" />
<glyph unicode="&#x26;" horiz-adv-x="1363" d="M57 365q0 261 269 426q-90 120 -90 256q0 150 115.5 253t301.5 103q140 0 235.5 -65.5t147.5 -172.5l-209 -129q-59 127 -161 127q-61 0 -99.5 -35.5t-38.5 -89.5q0 -64 72 -151l320 -379l184 211l199 -174l-211 -240l258 -305h-363l-96 113q-94 -77 -183.5 -111.5 t-199.5 -34.5q-203 0 -327 111t-124 287zM346 389q0 -74 50 -119t136 -45q57 0 100.5 20.5t94.5 65.5l-250 293q-72 -53 -101.5 -103t-29.5 -112z" />
<glyph unicode="'" horiz-adv-x="464" d="M96 856v510h273v-510h-273z" />
<glyph unicode="(" horiz-adv-x="659" d="M115 627q0 144 21.5 283.5t56 245.5t62.5 174t54 116h295q-24 -42 -52.5 -119t-59.5 -184.5t-51.5 -245.5t-20.5 -270t20.5 -270t51.5 -245t59.5 -183.5t52.5 -118.5h-295q-26 47 -54.5 115t-62.5 173.5t-55.5 245t-21.5 283.5z" />
<glyph unicode=")" horiz-adv-x="659" d="M55 -190q59 105 122 337.5t63 479.5q0 172 -36.5 355t-75.5 293.5t-73 170.5h295q27 -48 55 -116t62.5 -174t56 -245.5t21.5 -283.5t-22 -283.5t-56 -245t-62.5 -173.5t-54.5 -115h-295z" />
<glyph unicode="*" horiz-adv-x="1009" d="M100 958l222 103l-222 102l115 199l195 -135l-21 235h229l-16 -237l193 133l114 -199l-219 -96l219 -102l-114 -199l-195 135l18 -238h-229l23 234l-197 -133z" />
<glyph unicode="+" d="M150 535v235h286v291h242v-291h289v-235h-289v-287h-242v287h-286z" />
<glyph unicode="," horiz-adv-x="579" d="M119 -293l129 293h-117v328h338v-326l-172 -295h-178z" />
<glyph unicode="-" horiz-adv-x="911" d="M131 432v281h649v-281h-649z" />
<glyph unicode="." horiz-adv-x="583" d="M125 0v326h334v-326h-334z" />
<glyph unicode="/" horiz-adv-x="917" d="M41 -33l545 1436h291l-539 -1436h-297z" />
<glyph unicode="0" d="M49 653q0 309 131.5 491.5t378.5 182.5q127 0 225 -48.5t159.5 -138.5t92.5 -212.5t31 -274.5q0 -207 -54 -358.5t-170 -239.5t-286 -88q-164 0 -280 87.5t-172 240.5t-56 358zM348 653q0 -122 20 -212.5t68.5 -147.5t122.5 -57q55 0 96 32t65 89.5t36 131.5t12 164 q0 182 -53 293t-158 111q-55 0 -96 -30.5t-65 -86t-36 -127.5t-12 -160z" />
<glyph unicode="1" d="M113 1079l383 211h243v-1038h211v-252h-721v252h224v717l-215 -115z" />
<glyph unicode="2" d="M63 1077q63 106 182 178t292 72q107 0 192 -31t137 -83t79.5 -116.5t27.5 -135.5q0 -75 -29.5 -144t-76.5 -122.5t-103.5 -102.5t-113.5 -91t-104 -81t-76.5 -79.5t-29.5 -78.5h539v-262h-879v174q0 83 31.5 160t82 135.5t111.5 111.5t122 98.5t111.5 87t82 85t31.5 84.5 q0 56 -42 95.5t-126 39.5q-43 0 -80 -13t-65.5 -39t-43.5 -44t-36 -47z" />
<glyph unicode="3" d="M20 125l160 209q131 -115 277 -115q96 0 157.5 52.5t61.5 142.5q0 78 -51 130t-150 52q-67 0 -125 -23l-76 121l330 338h-481v256h811v-211l-268 -303q152 -29 231.5 -128t79.5 -253q0 -99 -42 -181t-112 -135.5t-160.5 -82.5t-189.5 -29q-275 0 -453 160z" />
<glyph unicode="4" d="M59 236v227l557 827h293v-823h131v-231h-131v-236h-274v236h-576zM324 467h311v477z" />
<glyph unicode="5" d="M33 129l157 205q123 -113 269 -113q109 0 164 59.5t55 145.5q0 74 -56.5 134.5t-168.5 60.5q-92 0 -185 -39l-135 100l113 606h696v-258h-493l-39 -207q38 17 129 17q193 0 313.5 -112.5t120.5 -299.5q0 -95 -30.5 -176.5t-90.5 -146.5t-159 -102.5t-226 -37.5 q-256 0 -434 164z" />
<glyph unicode="6" d="M88 610q0 204 66.5 364.5t202.5 256.5t323 96q153 0 317 -82l-110 -227q-113 55 -207 55q-111 0 -196 -84.5t-97 -216.5q115 76 246 76q189 0 300 -115.5t111 -306.5q0 -128 -53 -231.5t-159 -166.5t-248 -63q-108 0 -196.5 37t-156.5 112.5t-105.5 201.5t-37.5 294z M381 541q0 -172 57 -247t146 -75q85 0 135.5 58t50.5 151q0 85 -50 134.5t-130 49.5q-123 0 -209 -71z" />
<glyph unicode="7" d="M104 1028v262h871v-248q-121 -206 -247 -502.5t-198 -539.5h-309q74 242 216 559t237 469h-570z" />
<glyph unicode="8" d="M51 367q0 120 60.5 207.5t164.5 136.5q-66 40 -110.5 111.5t-44.5 158.5q0 150 120.5 248t315.5 98q202 0 320 -95.5t118 -246.5q0 -88 -45.5 -159t-113.5 -111q108 -49 167.5 -136t59.5 -208q0 -70 -30.5 -139.5t-89.5 -129.5t-159.5 -97.5t-226.5 -37.5 q-127 0 -227 35.5t-159 94t-89.5 127.5t-30.5 143zM346 377q0 -86 62.5 -131t148.5 -45q84 0 147.5 45t63.5 131q0 77 -63 130.5t-150 76.5q-88 -22 -148.5 -75.5t-60.5 -131.5zM389 967q0 -54 47 -101t121 -71q74 24 120 71t46 105q0 66 -46 106.5t-120 40.5 q-73 0 -120.5 -42t-47.5 -109z" />
<glyph unicode="9" d="M74 864q0 128 52.5 232t158 167.5t247.5 63.5q108 0 196 -37.5t156 -115t105 -208t37 -304.5q0 -114 -20.5 -215t-65 -189.5t-110 -152.5t-161.5 -101t-214 -37q-100 0 -190 25t-148 57l112 230q124 -60 226 -60q128 0 196.5 79t79.5 214q-116 -74 -254 -74 q-123 0 -216 59.5t-140 155.5t-47 211zM348 866q0 -79 49 -132.5t127 -53.5q74 0 120.5 18.5t92.5 53.5q0 168 -54 243.5t-146 75.5q-86 0 -137.5 -56t-51.5 -149z" />
<glyph unicode=":" horiz-adv-x="583" d="M125 0v326h334v-326h-334zM125 635v326h334v-326h-334z" />
<glyph unicode=";" horiz-adv-x="593" d="M125 -293l129 293h-117v328h338v-326l-172 -295h-178zM139 635v326h334v-326h-334z" />
<glyph unicode="&#x3c;" d="M137 563v174l727 389l107 -208l-508 -265l516 -264l-115 -215z" />
<glyph unicode="=" d="M150 338v235h817v-235h-817zM150 713v235h817v-235h-817z" />
<glyph unicode="&#x3e;" d="M154 389l516 264l-508 265l106 208l727 -389v-174l-727 -389z" />
<glyph unicode="?" horiz-adv-x="1077" d="M63 1198q31 35 71.5 67.5t98.5 65t137 52.5t165 20q195 0 319.5 -102t124.5 -277q0 -75 -23 -134.5t-57 -98t-88 -78.5q-9 -7 -35.5 -27.5t-34.5 -27t-28.5 -24t-27 -27t-19 -27t-17 -32t-8.5 -35t-4 -42.5v-27h-281v27q0 224 162 342q6 5 29.5 21.5t30.5 22.5t26 21 t26.5 23t20 23t17.5 26t9.5 26t4.5 30q0 60 -49 93.5t-119 33.5q-145 0 -270 -125zM336 0v315h321v-315h-321z" />
<glyph unicode="@" horiz-adv-x="1966" d="M80 555q0 167 50 308t136 239.5t203 167.5t250.5 102t277.5 33q421 0 654 -217t233 -598q0 -136 -28 -245.5t-73 -178t-105 -114.5t-120 -64.5t-122 -18.5q-92 0 -149 28t-99 91q-65 -64 -138.5 -92.5t-185.5 -28.5q-54 0 -108 16.5t-103.5 50t-80.5 94.5t-31 140 q0 164 120.5 253t317.5 89q129 0 160 -8v37q0 62 -49.5 94.5t-122.5 32.5q-160 0 -275 -80l-123 180q158 127 437 127q191 0 301 -97t110 -269v-340q0 -101 72 -101q65 0 117.5 107.5t52.5 300.5q0 127 -35 229.5t-95.5 172.5t-145.5 117t-182 68t-208 21q-97 0 -190.5 -21 t-183.5 -69.5t-157.5 -120.5t-109 -182t-41.5 -246q0 -88 18.5 -171t47.5 -141t53.5 -95.5t46.5 -59.5l-166 -133q-35 29 -73 81.5t-74.5 127t-60 176t-23.5 207.5zM821 299q0 -57 37 -88t105 -31q73 0 124.5 45t51.5 121v80q-2 -1 -15.5 0.5t-37 3.5t-44.5 2 q-221 0 -221 -133z" />
<glyph unicode="A" horiz-adv-x="1382" d="M14 0l510 1366h342l500 -1366h-338l-104 313h-482l-104 -313h-324zM514 553h336l-166 516z" />
<glyph unicode="B" horiz-adv-x="1257" d="M133 0v1366h512q122 0 214 -29t145 -79.5t78.5 -112.5t25.5 -135q0 -61 -22.5 -115t-56.5 -87.5t-67 -54.5t-61 -28q43 -10 86 -31.5t89 -59.5t75 -101t29 -142q0 -391 -535 -391h-512zM434 238h201q231 0 231 178q0 42 -15.5 74.5t-38.5 51.5t-55 31.5t-61.5 16.5 t-60.5 4h-201v-356zM434 819h182q36 0 68 8t59.5 25.5t43.5 48.5t16 72q0 83 -54 118t-133 35h-182v-307z" />
<glyph unicode="C" horiz-adv-x="1394" d="M80 678q0 201 88 365.5t250.5 261t367.5 96.5q375 0 570 -271l-211 -202q-135 190 -346 190q-180 0 -289 -124t-109 -308q0 -183 108 -304.5t284 -121.5q57 0 106 11t81.5 25.5t68.5 43.5t54.5 48t51.5 56l211 -192q-91 -125 -247 -206t-337 -81q-205 0 -365.5 91.5 t-248.5 254t-88 367.5z" />
<glyph unicode="D" horiz-adv-x="1468" d="M133 0v1366h516q161 0 292.5 -41.5t230 -124t152.5 -216t54 -308.5q0 -165 -55 -295t-153.5 -212.5t-231 -125.5t-291.5 -43h-514zM442 274h189q203 0 314.5 107t111.5 297q0 196 -106.5 306t-319.5 110h-189v-820z" />
<glyph unicode="E" horiz-adv-x="1187" d="M133 0v1366h934v-270h-625v-267h486v-262h-486v-295h670v-272h-979z" />
<glyph unicode="F" horiz-adv-x="1103" d="M133 0v1366h918v-272h-609v-310h463v-264h-463v-520h-309z" />
<glyph unicode="G" horiz-adv-x="1480" d="M80 680q0 203 88.5 367t250.5 259t367 95q365 0 560 -260l-209 -199q-73 86 -151.5 131t-186.5 45q-183 0 -290.5 -125.5t-107.5 -312.5q0 -194 115.5 -313t294.5 -119q166 0 270 82v172h-241v250h526v-592q-221 -193 -573 -193q-220 0 -383 91t-246.5 251.5t-83.5 370.5 z" />
<glyph unicode="H" horiz-adv-x="1476" d="M133 0v1366h309v-524h592v524h309v-1366h-309v561h-592v-561h-309z" />
<glyph unicode="I" horiz-adv-x="575" d="M133 0v1366h309v-1366h-309z" />
<glyph unicode="J" horiz-adv-x="1073" d="M20 166l201 190q54 -64 110 -92t124 -28q88 0 137 51.5t49 148.5v930h309v-950q0 -114 -38.5 -202.5t-105 -142t-150 -81t-179.5 -27.5q-298 0 -457 203z" />
<glyph unicode="K" horiz-adv-x="1339" d="M133 0v1366h309v-545l457 545h358l-469 -532l533 -834h-375l-364 596l-140 -156v-440h-309z" />
<glyph unicode="L" horiz-adv-x="1144" d="M133 0v1366h309v-1092h654v-274h-963z" />
<glyph unicode="M" horiz-adv-x="1640" d="M111 0l63 1366h293l356 -641l348 641h295l64 -1366h-309l-39 893l-283 -533h-160l-299 527l-34 -887h-295z" />
<glyph unicode="N" horiz-adv-x="1458" d="M133 0v1366h295l592 -887v887h305v-1366h-281l-606 903v-903h-305z" />
<glyph unicode="O" horiz-adv-x="1581" d="M80 684q0 151 55 284.5t149 228.5t226 150.5t281 55.5q199 0 361.5 -94t255.5 -259t93 -366q0 -200 -93 -365t-256 -259.5t-361 -94.5t-361.5 94.5t-256.5 259.5t-93 365zM401 688q0 -181 107 -306.5t283 -125.5q116 0 205.5 59.5t135.5 157.5t46 215q0 182 -106 305 t-281 123q-177 0 -283.5 -123t-106.5 -305z" />
<glyph unicode="P" horiz-adv-x="1183" d="M133 0v1366h498q122 0 216 -36t150 -98.5t84.5 -140t28.5 -165.5q0 -107 -38 -193t-102.5 -140t-148 -83t-176.5 -29h-211v-481h-301zM434 731h180q86 0 136.5 52t50.5 137q0 87 -51.5 140.5t-137.5 53.5h-178v-383z" />
<glyph unicode="Q" horiz-adv-x="1581" d="M80 684q0 151 55 284.5t149 228.5t226 150.5t281 55.5q199 0 361.5 -94t255.5 -259t93 -366q0 -153 -56 -286.5t-157 -233.5l144 -178l-168 -140l-154 191q-147 -72 -319 -72q-198 0 -361.5 94.5t-256.5 259.5t-93 365zM401 688q0 -181 107 -306.5t283 -125.5 q68 0 124 20l-147 187l166 139l156 -196q88 117 88 282q0 182 -106 305t-281 123q-177 0 -283.5 -123t-106.5 -305z" />
<glyph unicode="R" horiz-adv-x="1243" d="M133 0v1366h508q116 0 208.5 -33.5t151 -92t89 -135.5t30.5 -167q0 -264 -223 -391l303 -547h-340l-254 502h-172v-502h-301zM434 750h191q85 0 134.5 50t49.5 130q0 85 -49 133.5t-135 48.5h-191v-362z" />
<glyph unicode="S" horiz-adv-x="1210" d="M37 193l199 215q159 -168 350 -168q74 0 135 42t61 107q0 72 -69.5 115t-237.5 86q-163 38 -261.5 139.5t-98.5 251.5q0 87 31.5 162t91.5 133.5t157 92.5t219 34q80 0 152.5 -15t118.5 -34t91.5 -49t63 -46t41.5 -40l-178 -197q-148 123 -293 123q-68 0 -123 -38 t-55 -91q0 -66 70.5 -110t206.5 -75q66 -16 120.5 -37.5t109 -57.5t92 -82t60.5 -113.5t23 -149.5q0 -183 -151.5 -304.5t-372.5 -121.5q-187 0 -325.5 64t-227.5 164z" />
<glyph unicode="T" horiz-adv-x="1280" d="M43 1094v272h1194v-272h-440v-1094h-312v1094h-442z" />
<glyph unicode="U" horiz-adv-x="1392" d="M123 518v848h311v-809q0 -143 60.5 -220t201.5 -77q260 0 260 297v809h314v-848q0 -248 -156 -401.5t-418 -153.5t-417.5 153t-155.5 402z" />
<glyph unicode="V" horiz-adv-x="1359" d="M14 1366h342l334 -997l326 997h327l-501 -1366h-326z" />
<glyph unicode="W" horiz-adv-x="1853" d="M20 1366h332l201 -989l240 952h280l242 -952l198 989h320l-348 -1366h-326l-233 893l-238 -893h-326z" />
<glyph unicode="X" horiz-adv-x="1312" d="M4 0l461 702l-451 664h379l256 -401l246 401h342l-422 -643l492 -723h-381l-295 459l-287 -459h-340z" />
<glyph unicode="Y" horiz-adv-x="1302" d="M14 1366h351l297 -516l288 516h336l-479 -793v-573h-313v571z" />
<glyph unicode="Z" horiz-adv-x="1300" d="M80 0v252l747 842h-712v272h1091v-254l-733 -842h748v-270h-1141z" />
<glyph unicode="[" horiz-adv-x="714" d="M145 -190v1636h514v-240h-239v-1155h239v-241h-514z" />
<glyph unicode="\" horiz-adv-x="917" d="M41 1403h291l545 -1436h-297z" />
<glyph unicode="]" horiz-adv-x="714" d="M55 51h240v1155h-240v240h514v-1636h-514v241z" />
<glyph unicode="^" horiz-adv-x="1155" d="M90 614l361 752h254l360 -752h-295l-192 433l-193 -433h-295z" />
<glyph unicode="_" horiz-adv-x="1024" d="M0 -133h1024v-113h-1024v113z" />
<glyph unicode="`" horiz-adv-x="964" d="M266 1397h293l98 -291h-217z" />
<glyph unicode="a" horiz-adv-x="1054" d="M51 268q0 164 124 256t319 92q141 0 172 -8v21q0 69 -53 103t-132 34q-157 0 -272 -80l-121 180q177 127 434 127q214 0 321 -115t107 -319v-559h-276l-8 90q-103 -119 -291 -119q-55 0 -108 15t-103.5 47t-81.5 93t-31 142zM336 299q0 -119 143 -119q74 0 130.5 45.5 t56.5 120.5v78q-56 8 -105 8q-119 0 -172 -33.5t-53 -99.5z" />
<glyph unicode="b" horiz-adv-x="1150" d="M109 37v1329h294v-477q40 42 110.5 67t141.5 25q99 0 181 -39t135.5 -105.5t82.5 -153.5t29 -185q0 -239 -150 -385t-411 -146q-209 0 -413 70zM403 233q47 -20 138 -20q115 0 180 74.5t65 199.5q0 100 -48 171t-142 71q-96 0 -144.5 -53t-48.5 -146v-297z" />
<glyph unicode="c" horiz-adv-x="997" d="M66 481q0 141 66 258t185 185.5t267 68.5q245 0 389 -157l-178 -193q-82 94 -205 94q-102 0 -165 -75.5t-63 -180.5q0 -100 63.5 -178t164.5 -78q127 0 209 94l172 -192q-65 -72 -163 -116t-224 -44q-231 0 -374.5 143.5t-143.5 370.5z" />
<glyph unicode="d" horiz-adv-x="1157" d="M66 467q0 124 45.5 225t119.5 162.5t160.5 94t175.5 32.5q43 0 80 -5.5t54 -10.5t55 -17v418h293v-1366h-275l-12 96q-47 -57 -118.5 -91t-158.5 -34q-181 0 -300 136.5t-119 359.5zM362 461q0 -108 52.5 -173t152.5 -65q94 0 141.5 60.5t47.5 150.5v262q-57 35 -156 35 q-111 0 -174.5 -74.5t-63.5 -195.5z" />
<glyph unicode="e" horiz-adv-x="1095" d="M66 483q0 81 21.5 156.5t63.5 139.5t101 112t138.5 75t170.5 27q226 0 350.5 -151.5t124.5 -399.5v-49h-684q2 -81 70.5 -137.5t181.5 -56.5q171 0 291 92l121 -187q-2 -1 -23.5 -16t-37 -24t-45.5 -25.5t-61 -27t-70 -22t-86.5 -17t-98.5 -5.5q-244 0 -386 142t-142 374 zM352 582h406q0 68 -52.5 125t-146.5 57q-95 0 -151 -57t-56 -125z" />
<glyph unicode="f" horiz-adv-x="729" d="M29 729v232h155v49q0 98 33.5 175t90 123.5t125.5 70.5t145 24q184 0 303 -100q-20 -31 -62 -93.5t-63 -93.5q-62 47 -144 47q-62 0 -98.5 -39t-36.5 -110v-53h228v-232h-228v-729h-293v729h-155z" />
<glyph unicode="g" horiz-adv-x="1148" d="M66 463q0 233 151.5 375.5t400.5 142.5q218 0 420 -72v-878q0 -233 -128 -349t-361 -116q-252 0 -402 102l119 209q120 -74 264 -74q101 0 158 54.5t57 158.5v68q-92 -80 -245 -80q-201 0 -317.5 127t-116.5 332zM362 473q0 -106 51 -166.5t146 -60.5q189 0 189 182v289 q-56 20 -134 20q-121 0 -186.5 -75.5t-65.5 -188.5z" />
<glyph unicode="h" horiz-adv-x="1155" d="M109 0v1366h292v-498q46 54 123.5 84.5t159.5 30.5q169 0 267 -100.5t98 -288.5v-594h-293v549q0 84 -42.5 131t-115.5 47q-91 0 -143 -61t-52 -150v-516h-294z" />
<glyph unicode="i" horiz-adv-x="528" d="M106 1102v264h316v-264h-316zM117 0v961h295v-961h-295z" />
<glyph unicode="j" horiz-adv-x="542" d="M-219 -322l108 199q64 -37 117 -37q67 0 96 41.5t29 122.5v957h293v-912q0 -78 -9 -140.5t-33.5 -124t-64.5 -102.5t-106.5 -66.5t-155.5 -25.5q-161 0 -274 88zM119 1102v264h315v-264h-315z" />
<glyph unicode="k" horiz-adv-x="1091" d="M109 0v1366h294v-709l293 304h334l-344 -355l391 -606h-342l-246 406l-86 -89v-317h-294z" />
<glyph unicode="l" horiz-adv-x="512" d="M109 0v1366h294v-1366h-294z" />
<glyph unicode="m" horiz-adv-x="1767" d="M109 0v961h282l10 -107q103 129 279 129q185 0 283 -133q60 63 144.5 98t176.5 35q182 0 280.5 -103.5t98.5 -285.5v-594h-295v547q0 87 -38.5 133.5t-112.5 46.5q-85 0 -137 -59t-52 -152v-516h-285v547q0 87 -38.5 133.5t-112.5 46.5q-84 0 -136.5 -59t-52.5 -152v-516 h-294z" />
<glyph unicode="n" horiz-adv-x="1150" d="M111 0v961h282l8 -105q48 58 124.5 92.5t160.5 34.5q169 0 265 -100t96 -289v-594h-295v553q0 80 -40.5 127t-111.5 47q-94 0 -145.5 -60.5t-51.5 -150.5v-516h-292z" />
<glyph unicode="o" horiz-adv-x="1163" d="M66 481q0 142 64.5 258.5t183.5 185t268 68.5q224 0 369 -147.5t145 -364.5q0 -141 -64.5 -258t-183 -186.5t-266.5 -69.5q-149 0 -268 69.5t-183.5 186.5t-64.5 258zM350 481q0 -105 62.5 -181.5t169.5 -76.5t168 76.5t61 181.5t-61 180.5t-168 75.5t-169.5 -75.5 t-62.5 -180.5z" />
<glyph unicode="p" horiz-adv-x="1167" d="M109 -410v1371h282q6 -35 10 -105q46 59 120 91t155 32q102 0 184.5 -41t133.5 -110t78.5 -156.5t27.5 -184.5q0 -103 -29.5 -190t-78.5 -146.5t-114.5 -101t-136 -61t-143.5 -19.5q-15 0 -29 0.5t-28 2.5t-23.5 3t-23.5 4.5t-20.5 4.5t-21 5.5t-17 5.5t-18 6t-16.5 5 v-416h-292zM401 254q56 -39 170 -39q108 0 171 72t63 194q0 105 -49.5 175.5t-151.5 70.5q-93 0 -148 -65t-55 -152v-256z" />
<glyph unicode="q" horiz-adv-x="1155" d="M66 469q0 223 150.5 367.5t406.5 144.5q223 0 424 -72v-1319h-295v465q-75 -82 -242 -82q-203 0 -323.5 134.5t-120.5 361.5zM362 467q0 -105 52 -174.5t151 -69.5q94 0 140.5 48t46.5 149v293q-50 18 -134 18q-125 0 -190.5 -70t-65.5 -194z" />
<glyph unicode="r" horiz-adv-x="804" d="M109 0v961h282l10 -121q103 139 269 139q76 0 121 -18l-48 -261q-47 15 -106 15q-106 0 -170 -63.5t-64 -176.5v-475h-294z" />
<glyph unicode="s" horiz-adv-x="987" d="M61 109l146 188q48 -43 124.5 -71.5t147.5 -28.5q73 0 112.5 17.5t39.5 61.5q0 38 -43.5 62t-179.5 61q-299 78 -299 295q0 132 115 215.5t290 83.5q229 0 385 -108l-125 -195q-123 80 -244 80q-129 0 -129 -72q0 -21 11 -36t44.5 -29t57.5 -21.5t86 -23.5 q8 -2 12.5 -3.5t11.5 -3t13 -3.5q148 -41 214.5 -113t66.5 -191q0 -101 -63 -172.5t-157 -103t-206 -31.5q-133 0 -247 36t-184 106z" />
<glyph unicode="t" horiz-adv-x="856" d="M29 729v232h151v290h295v-290h248v-232h-248v-379q0 -145 115 -145q65 0 139 51l119 -180q-138 -111 -303 -111q-365 0 -365 402v362h-151z" />
<glyph unicode="u" horiz-adv-x="1148" d="M104 365v596h295v-553q0 -83 40.5 -130t117.5 -47q87 0 137.5 61.5t50.5 149.5v519h293v-961h-282l-8 102q-48 -57 -125 -92t-160 -35q-168 0 -263.5 100.5t-95.5 289.5z" />
<glyph unicode="v" d="M10 961h328l227 -631l219 631h322l-412 -961h-278z" />
<glyph unicode="w" horiz-adv-x="1574" d="M14 961h303l168 -617l187 617h235l189 -617l168 617h297l-330 -961h-266l-181 537l-178 -537h-262z" />
<glyph unicode="x" horiz-adv-x="1079" d="M12 0l357 481l-351 480h353l172 -256l174 256h321l-338 -459l369 -502h-352l-191 276l-192 -276h-322z" />
<glyph unicode="y" horiz-adv-x="1126" d="M10 961h336l240 -607l217 607h313l-393 -955q-8 -19 -26 -63.5t-26.5 -65t-26.5 -60t-30 -59t-33.5 -51.5t-40 -48.5t-45.5 -37t-55 -30.5t-63.5 -17.5t-75.5 -7.5q-145 0 -258 80l119 202q62 -47 119 -47q47 0 78.5 29.5t60.5 101.5l29 78z" />
<glyph unicode="z" horiz-adv-x="1003" d="M82 0v199l471 524h-451v238h824v-203l-473 -527h475v-231h-846z" />
<glyph unicode="{" horiz-adv-x="634" d="M57 547v164q136 0 150 149l29 338q8 93 31 152t69 96h270q-84 -84 -102 -287l-29 -338q-6 -70 -52.5 -121.5t-107.5 -70.5q71 -23 110 -83t56 -171l27 -338q4 -60 32.5 -125t65.5 -102h-270q-46 37 -69 96.5t-31 152.5l-29 338q-14 150 -150 150z" />
<glyph unicode="|" horiz-adv-x="538" d="M135 -336v2042h266v-2042h-266z" />
<glyph unicode="}" horiz-adv-x="634" d="M29 -190q37 37 65.5 102t32.5 125l27 338q17 112 55.5 171.5t109.5 82.5q-61 18 -107 70t-52 122l-29 338q-18 203 -102 287h270q46 -37 69 -96t31 -152l29 -338q14 -149 150 -149v-164q-136 0 -150 -150l-29 -338q-8 -93 -31 -152.5t-69 -96.5h-270z" />
<glyph unicode="~" horiz-adv-x="1030" d="M72 649q135 150 288 150q58 0 143 -44t136 -44q55 0 94.5 21.5t95.5 70.5l129 -205q-45 -60 -122 -107t-154 -47q-54 0 -104.5 23t-97 46.5t-89.5 23.5q-29 0 -53.5 -5.5t-52 -23.5t-39 -26.5t-47.5 -37.5z" />
<glyph unicode="&#xa1;" horiz-adv-x="598" d="M137 -403l13 919h299l12 -919h-324zM137 645v316h322v-316h-322z" />
<glyph unicode="&#xa2;" d="M137 641q0 190 118 331t304 173v184h180v-182q185 -23 305 -152l-178 -192q-82 94 -204 94q-102 0 -165 -75.5t-63 -180.5q0 -106 63.5 -181t164.5 -75q124 0 208 96l172 -194q-119 -129 -303 -154v-172h-180v174q-192 29 -307 167t-115 339z" />
<glyph unicode="&#xa3;" d="M76 551v197h149v124q0 86 26 164.5t78.5 145t143 106t207.5 39.5q236 0 387 -166l-180 -196q-42 44 -83.5 67t-98.5 23q-87 0 -128.5 -62t-41.5 -153v-92h364v-197h-364v-279h538v-272h-848v551h-149z" />
<glyph unicode="&#xa4;" d="M55 326l133 137q-51 89 -51 201q0 109 49 194l-131 135l164 166l133 -135q94 51 195 51q112 0 207 -59l139 143l166 -166l-146 -147q45 -92 45 -182q0 -103 -47 -189l148 -149l-166 -164l-143 145q-95 -53 -203 -53q-106 0 -189 47l-139 -139zM365 664q0 -75 53.5 -129 t128.5 -54t128.5 54t53.5 129t-53.5 128.5t-128.5 53.5t-128.5 -53.5t-53.5 -128.5z" />
<glyph unicode="&#xa5;" d="M-2 1290h328l237 -524l238 524h317l-317 -590h188v-168h-276v-143h276v-168h-276v-221h-310v221h-268v168h268v143h-268v168h178z" />
<glyph unicode="&#xa6;" horiz-adv-x="538" d="M135 -336v776h266v-776h-266zM135 930v776h266v-776h-266z" />
<glyph unicode="&#xa7;" horiz-adv-x="962" d="M80 334l158 235l417 -272q196 -126 193 -342q0 -163 -115 -276t-295 -113q-183 0 -321 121l143 215q34 -23 54.5 -35.5t56.5 -25.5t67 -13q53 0 87 33t34 76q0 40 -16 68t-66 61zM102 1012q0 163 115.5 277t294.5 114q172 0 322 -123l-142 -215q-110 74 -178 74 q-55 0 -88 -32t-33 -75q0 -40 16 -69t66 -62l397 -266l-157 -236l-418 271q-195 123 -195 342z" />
<glyph unicode="&#xa8;" horiz-adv-x="804" d="M78 1135v233h252v-233h-252zM473 1135v233h252v-233h-252z" />
<glyph unicode="&#xa9;" horiz-adv-x="1650" d="M115 686q0 196 93.5 360t257 259.5t359.5 95.5q146 0 277.5 -56.5t226 -152t150 -228t55.5 -278.5q0 -196 -94.5 -360.5t-258 -259.5t-358.5 -95t-358 95t-256.5 259t-93.5 361zM297 686q0 -232 150.5 -388.5t375.5 -156.5t376 156.5t151 388.5q0 150 -69 275.5 t-189.5 197.5t-266.5 72q-110 0 -208 -42.5t-168 -115.5t-111 -173.5t-41 -213.5zM442 692q0 163 111 276t281 113q101 0 182.5 -47.5t134.5 -124.5l-143 -110q-25 42 -68.5 70t-95.5 28q-89 0 -143 -58.5t-54 -148.5q0 -87 55 -146t142 -59q99 0 164 99l143 -115 q-53 -77 -134.5 -123.5t-182.5 -46.5q-173 0 -282.5 111.5t-109.5 281.5z" />
<glyph unicode="&#xaa;" horiz-adv-x="786" d="M76 846q0 57 25 100.5t68 68.5t95.5 37.5t112.5 12.5q49 0 104 -6v24q0 40 -31.5 62t-80.5 22q-101 0 -189 -57l-88 127q122 90 297 90q132 0 211.5 -66t79.5 -186v-416h-191q0 18 -4 54q-74 -74 -184 -74q-96 0 -160.5 54.5t-64.5 152.5zM272 860q0 -69 95 -69 q49 0 81.5 28.5t32.5 71.5v39q-42 6 -92 6q-57 0 -87 -21.5t-30 -54.5z" />
<glyph unicode="&#xab;" horiz-adv-x="1181" d="M109 494l213 403h290l-209 -403l209 -404h-290zM561 494l213 403h291l-209 -403l209 -404h-291z" />
<glyph unicode="&#xac;" d="M150 535v235h817v-522h-242v287h-575z" />
<glyph unicode="&#xad;" horiz-adv-x="911" d="M131 432v281h649v-281h-649z" />
<glyph unicode="&#xae;" horiz-adv-x="1650" d="M115 686q0 196 93.5 360t257 259.5t359.5 95.5q146 0 277.5 -56.5t226 -152t150 -228t55.5 -278.5q0 -196 -94.5 -360.5t-258 -259.5t-358.5 -95t-358 95t-256.5 259t-93.5 361zM297 686q0 -232 150.5 -388.5t375.5 -156.5t376 156.5t151 388.5q0 150 -69 275.5 t-189.5 197.5t-266.5 72q-110 0 -208 -42.5t-168 -115.5t-111 -173.5t-41 -213.5zM549 338v711h299q69 0 123.5 -21t84.5 -54.5t45 -70t15 -72.5q0 -62 -32 -116t-91 -84l170 -293h-205l-149 262h-78v-262h-182zM731 745h111q90 0 90 74q0 76 -90 76h-111v-150z" />
<glyph unicode="&#xaf;" horiz-adv-x="804" d="M123 1130v209h559v-209h-559z" />
<glyph unicode="&#xb0;" horiz-adv-x="735" d="M70 1073q0 127 86 210t211 83q126 0 212.5 -82.5t86.5 -208.5t-86.5 -208.5t-212.5 -82.5q-124 0 -210.5 83t-86.5 206zM254 1073q0 -50 31.5 -83.5t81.5 -33.5q51 0 82.5 33.5t31.5 85.5q0 50 -32 83.5t-82 33.5t-81.5 -33.5t-31.5 -85.5z" />
<glyph unicode="&#xb1;" d="M150 0v236h817v-236h-817zM150 535v235h286v291h242v-291h289v-235h-289v-240h-242v240h-286z" />
<glyph unicode="&#xb2;" horiz-adv-x="737" d="M76 1225q144 98 295 98q128 0 202 -57.5t74 -159.5q0 -54 -19.5 -96t-54 -72t-70.5 -53t-81.5 -51.5t-73.5 -53.5h303v-178h-561v111q0 47 24.5 90.5t61.5 74t80 60.5t80 52.5t61.5 48t24.5 48.5q0 56 -72 56q-84 0 -180 -66z" />
<glyph unicode="&#xb3;" horiz-adv-x="737" d="M45 670l100 153q89 -63 185 -63q45 0 72.5 18t27.5 53q0 74 -113 74q-48 0 -102 -14l-43 88l223 154h-282v172h505v-156l-151 -121q180 -32 180 -213q0 -108 -90.5 -170.5t-224.5 -62.5q-159 0 -287 88z" />
<glyph unicode="&#xb4;" horiz-adv-x="964" d="M336 1106l98 291h291l-172 -291h-217z" />
<glyph unicode="&#xb5;" horiz-adv-x="1150" d="M111 -410v1371h292v-551q0 -86 41.5 -132.5t116.5 -46.5q89 0 139 58.5t50 148.5v523h294v-961h-282q-3 16 -8 92q-33 -49 -92.5 -78.5t-131.5 -29.5q-67 0 -127 32v-426h-292z" />
<glyph unicode="&#xb6;" horiz-adv-x="1163" d="M63 985q0 85 26 151t70 109t107.5 70.5t133.5 39t153 11.5h74v-760h-74q-490 0 -490 379zM346 -250v762q81 -23 207 -23h74v-739h-281zM745 -250v1616h281v-1616h-281z" />
<glyph unicode="&#xb7;" horiz-adv-x="583" d="M125 492v325h334v-325h-334z" />
<glyph unicode="&#xb8;" horiz-adv-x="1171" d="M195 -422l28 146q83 -27 144 -27q114 0 114 61q0 56 -106 56q-71 0 -135 -25l26 139q98 25 176 25q104 0 172 -50.5t68 -140.5q0 -104 -81 -160.5t-193 -56.5q-130 0 -213 33z" />
<glyph unicode="&#xb9;" horiz-adv-x="737" d="M109 1169l253 136h199v-703h-223v479l-148 -73z" />
<glyph unicode="&#xba;" horiz-adv-x="866" d="M86 983q0 148 98 246t250 98q151 0 247.5 -98t96.5 -246q0 -149 -96.5 -245.5t-247.5 -96.5q-153 0 -250.5 96.5t-97.5 245.5zM295 983q0 -68 37 -112t102 -44q64 0 100.5 44t36.5 112t-36.5 113t-100.5 45q-65 0 -102 -44.5t-37 -113.5z" />
<glyph unicode="&#xbb;" horiz-adv-x="1173" d="M117 90l209 404l-209 403h291l213 -403l-213 -404h-291zM569 90l209 404l-209 403h291l213 -403l-213 -404h-291z" />
<glyph unicode="&#xbc;" horiz-adv-x="1843" d="M109 1169l253 136h199v-703h-223v479l-148 -73zM371 0l823 1290h256l-819 -1290h-260zM1071 121v162l328 419h227v-430h80v-151h-80v-121h-201v121h-354zM1239 272h186v248z" />
<glyph unicode="&#xbd;" horiz-adv-x="1894" d="M100 1169l254 136h199v-703h-223v479l-148 -73zM358 0l824 1290h256l-820 -1290h-260zM1182 625q144 98 295 98q128 0 202 -57.5t74 -159.5q0 -54 -19.5 -96t-54 -72t-70.5 -53t-81.5 -51.5t-73.5 -53.5h303v-178h-561v111q0 47 24.5 90.5t61.5 74t80 60.5t80 52.5 t61.5 48t24.5 48.5q0 56 -72 56q-84 0 -180 -66z" />
<glyph unicode="&#xbe;" horiz-adv-x="1894" d="M129 670l100 153q89 -63 185 -63q45 0 72.5 18t27.5 53q0 74 -113 74q-48 0 -102 -14l-43 88l223 154h-282v172h505v-156l-151 -121q180 -32 180 -213q0 -108 -90.5 -170.5t-224.5 -62.5q-159 0 -287 88zM444 0l824 1290h256l-819 -1290h-261zM1135 123v162l327 420h228 v-431h79v-151h-79v-121h-201v121h-354zM1303 274h186v248z" />
<glyph unicode="&#xbf;" horiz-adv-x="1077" d="M98 -63q0 109 42 177.5t126 133.5q10 8 35.5 27.5t34.5 26.5t28.5 24t26.5 26.5t19.5 27t17 32.5t8.5 35t4 42v27h281v-27q0 -224 -162 -342q-8 -6 -29.5 -21.5t-30.5 -22t-26.5 -21t-26 -23t-20.5 -23t-17 -26t-9.5 -26t-4.5 -29.5q0 -60 49 -93.5t119 -33.5 q82 0 152 38t119 87l180 -191q-189 -204 -471 -204q-195 0 -320 102t-125 277zM420 645v316h321v-316h-321z" />
<glyph unicode="&#xc0;" horiz-adv-x="1382" d="M14 0l510 1366h342l500 -1366h-338l-104 313h-482l-104 -313h-324zM360 1788h334l150 -320h-240zM514 553h336l-166 516z" />
<glyph unicode="&#xc1;" horiz-adv-x="1382" d="M14 0l510 1366h342l500 -1366h-338l-104 313h-482l-104 -313h-324zM514 553h336l-166 516zM559 1468l150 320h333l-243 -320h-240z" />
<glyph unicode="&#xc2;" horiz-adv-x="1382" d="M14 0l510 1366h342l500 -1366h-338l-104 313h-482l-104 -313h-324zM336 1468l231 320h246l231 -320h-245l-109 154l-110 -154h-244zM514 553h336l-166 516z" />
<glyph unicode="&#xc3;" horiz-adv-x="1382" d="M14 0l510 1366h342l500 -1366h-338l-104 313h-482l-104 -313h-324zM268 1651q49 54 117.5 90.5t146.5 36.5q55 0 141.5 -43t139.5 -43q101 0 191 75l110 -168q-121 -129 -264 -129q-55 0 -141.5 44.5t-139.5 44.5q-60 0 -103.5 -20t-86.5 -56zM514 553h336l-166 516z" />
<glyph unicode="&#xc4;" horiz-adv-x="1382" d="M14 0l510 1366h342l500 -1366h-338l-104 313h-482l-104 -313h-324zM330 1503v250h270v-250h-270zM514 553h336l-166 516zM778 1503v250h271v-250h-271z" />
<glyph unicode="&#xc5;" horiz-adv-x="1382" d="M14 0l502 1348q-100 75 -100 211q0 116 80 194t198 78t199.5 -78t81.5 -194q0 -65 -27.5 -120t-75.5 -91l494 -1348h-338l-104 313h-482l-104 -313h-324zM514 553h336l-166 516zM600 1559q0 -42 27 -70.5t69 -28.5q41 0 68 28.5t27 70.5q0 43 -27 70.5t-70 27.5 q-41 0 -67.5 -27.5t-26.5 -70.5z" />
<glyph unicode="&#xc6;" horiz-adv-x="1964" d="M0 0l748 1366h1095v-270h-598v-267h461v-262h-461v-295h643v-272h-940v317h-454l-164 -317h-330zM616 555h332v557h-45z" />
<glyph unicode="&#xc7;" horiz-adv-x="1394" d="M80 678q0 201 88 365.5t250.5 261t367.5 96.5q375 0 570 -271l-211 -202q-135 190 -346 190q-180 0 -289 -124t-109 -308q0 -183 108 -304.5t284 -121.5q57 0 106 11t81.5 25.5t68.5 43.5t54.5 48t51.5 56l211 -192q-91 -125 -247 -206t-337 -81q-205 0 -365.5 91.5 t-248.5 254t-88 367.5zM520 -442l29 147q73 -24 145 -24q113 0 113 55q0 51 -105 51q-78 0 -137 -20l27 139q76 22 178 22q105 0 174.5 -48.5t69.5 -137.5q0 -71 -42.5 -121.5t-104 -72t-132.5 -21.5q-137 0 -215 31z" />
<glyph unicode="&#xc8;" horiz-adv-x="1187" d="M133 0v1366h934v-270h-625v-267h486v-262h-486v-295h670v-272h-979zM303 1788h334l149 -320h-239z" />
<glyph unicode="&#xc9;" horiz-adv-x="1187" d="M133 0v1366h934v-270h-625v-267h486v-262h-486v-295h670v-272h-979zM477 1468l150 320h334l-244 -320h-240z" />
<glyph unicode="&#xca;" horiz-adv-x="1187" d="M133 0v1366h934v-270h-625v-267h486v-262h-486v-295h670v-272h-979zM252 1468l231 320h246l232 -320h-246l-109 154l-110 -154h-244z" />
<glyph unicode="&#xcb;" horiz-adv-x="1187" d="M133 0v1366h934v-270h-625v-267h486v-262h-486v-295h670v-272h-979zM244 1503v250h270v-250h-270zM692 1503v250h271v-250h-271z" />
<glyph unicode="&#xcc;" horiz-adv-x="575" d="M-47 1788h334l149 -320h-239zM133 0v1366h309v-1366h-309z" />
<glyph unicode="&#xcd;" horiz-adv-x="575" d="M133 0v1366h309v-1366h-309zM145 1468l150 320h334l-244 -320h-240z" />
<glyph unicode="&#xce;" horiz-adv-x="575" d="M-63 1468l231 320h246l231 -320h-246l-108 154l-111 -154h-243zM133 0v1366h309v-1366h-309z" />
<glyph unicode="&#xcf;" horiz-adv-x="575" d="M-70 1503v250h271v-250h-271zM133 0v1366h309v-1366h-309zM379 1503v250h270v-250h-270z" />
<glyph unicode="&#xd0;" horiz-adv-x="1468" d="M2 590v196h131v580h516q161 0 292.5 -41.5t230 -124t152.5 -216t54 -308.5q0 -165 -55 -295t-153.5 -212.5t-231 -125.5t-291.5 -43h-514v590h-131zM442 274h191q203 0 314.5 107t111.5 297q0 196 -105 306t-321 110h-191v-308h271v-196h-271v-316z" />
<glyph unicode="&#xd1;" horiz-adv-x="1458" d="M133 0v1366h295l592 -887v887h305v-1366h-281l-606 903v-903h-305zM291 1651q49 54 117.5 90.5t146.5 36.5q55 0 141.5 -43t139.5 -43q100 0 190 75l111 -168q-121 -129 -265 -129q-55 0 -141 44.5t-139 44.5q-99 0 -191 -76z" />
<glyph unicode="&#xd2;" horiz-adv-x="1581" d="M80 684q0 151 55 284.5t149 228.5t226 150.5t281 55.5q199 0 361.5 -94t255.5 -259t93 -366q0 -200 -93 -365t-256 -259.5t-361 -94.5t-361.5 94.5t-256.5 259.5t-93 365zM401 688q0 -181 107 -306.5t283 -125.5q116 0 205.5 59.5t135.5 157.5t46 215q0 182 -106 305 t-281 123q-177 0 -283.5 -123t-106.5 -305zM461 1788h334l149 -320h-239z" />
<glyph unicode="&#xd3;" horiz-adv-x="1581" d="M80 684q0 151 55 284.5t149 228.5t226 150.5t281 55.5q199 0 361.5 -94t255.5 -259t93 -366q0 -200 -93 -365t-256 -259.5t-361 -94.5t-361.5 94.5t-256.5 259.5t-93 365zM401 688q0 -181 107 -306.5t283 -125.5q116 0 205.5 59.5t135.5 157.5t46 215q0 182 -106 305 t-281 123q-177 0 -283.5 -123t-106.5 -305zM635 1468l149 320h334l-244 -320h-239z" />
<glyph unicode="&#xd4;" horiz-adv-x="1581" d="M80 684q0 151 55 284.5t149 228.5t226 150.5t281 55.5q199 0 361.5 -94t255.5 -259t93 -366q0 -200 -93 -365t-256 -259.5t-361 -94.5t-361.5 94.5t-256.5 259.5t-93 365zM401 688q0 -181 107 -306.5t283 -125.5q116 0 205.5 59.5t135.5 157.5t46 215q0 182 -106 305 t-281 123q-177 0 -283.5 -123t-106.5 -305zM436 1468l232 320h245l232 -320h-246l-108 154l-111 -154h-244z" />
<glyph unicode="&#xd5;" horiz-adv-x="1581" d="M80 684q0 151 55 284.5t149 228.5t226 150.5t281 55.5q199 0 361.5 -94t255.5 -259t93 -366q0 -200 -93 -365t-256 -259.5t-361 -94.5t-361.5 94.5t-256.5 259.5t-93 365zM369 1651q49 54 117.5 90.5t146.5 36.5q55 0 141 -43t139 -43q101 0 191 75l110 -168 q-121 -129 -264 -129q-55 0 -141 44.5t-139 44.5q-99 0 -191 -76zM401 688q0 -181 107 -306.5t283 -125.5q116 0 205.5 59.5t135.5 157.5t46 215q0 182 -106 305t-281 123q-177 0 -283.5 -123t-106.5 -305z" />
<glyph unicode="&#xd6;" horiz-adv-x="1581" d="M80 684q0 151 55 284.5t149 228.5t226 150.5t281 55.5q199 0 361.5 -94t255.5 -259t93 -366q0 -200 -93 -365t-256 -259.5t-361 -94.5t-361.5 94.5t-256.5 259.5t-93 365zM401 688q0 -181 107 -306.5t283 -125.5q116 0 205.5 59.5t135.5 157.5t46 215q0 182 -106 305 t-281 123q-177 0 -283.5 -123t-106.5 -305zM430 1503v250h270v-250h-270zM879 1503v250h270v-250h-270z" />
<glyph unicode="&#xd7;" d="M154 412l237 239l-235 238l166 166l237 -238l240 240l164 -166l-238 -240l236 -235l-166 -168l-238 237l-238 -239z" />
<glyph unicode="&#xd8;" horiz-adv-x="1581" d="M80 680q0 151 55 284.5t149 228.5t226 150.5t281 55.5q177 0 323 -76l117 170l172 -111l-121 -176q105 -100 162 -234.5t57 -291.5q0 -200 -93 -365t-256 -259.5t-361 -94.5q-175 0 -322 72l-115 -166l-172 110l119 173q-106 100 -163.5 236t-57.5 294zM401 684 q0 -159 80 -274l465 671q-73 31 -155 31q-177 0 -283.5 -123t-106.5 -305zM641 283q67 -31 150 -31q116 0 205.5 59.5t135.5 157.5t46 215q0 151 -76 264z" />
<glyph unicode="&#xd9;" horiz-adv-x="1392" d="M123 518v848h311v-809q0 -143 60.5 -220t201.5 -77q260 0 260 297v809h314v-848q0 -248 -156 -401.5t-418 -153.5t-417.5 153t-155.5 402zM389 1788h334l149 -320h-239z" />
<glyph unicode="&#xda;" horiz-adv-x="1392" d="M123 518v848h311v-809q0 -143 60.5 -220t201.5 -77q260 0 260 297v809h314v-848q0 -248 -156 -401.5t-418 -153.5t-417.5 153t-155.5 402zM549 1468l149 320h334l-244 -320h-239z" />
<glyph unicode="&#xdb;" horiz-adv-x="1392" d="M123 518v848h311v-809q0 -143 60.5 -220t201.5 -77q260 0 260 297v809h314v-848q0 -248 -156 -401.5t-418 -153.5t-417.5 153t-155.5 402zM342 1468l231 320h246l232 -320h-246l-109 154l-110 -154h-244z" />
<glyph unicode="&#xdc;" horiz-adv-x="1392" d="M123 518v848h311v-809q0 -143 60.5 -220t201.5 -77q260 0 260 297v809h314v-848q0 -248 -156 -401.5t-418 -153.5t-417.5 153t-155.5 402zM336 1503v250h270v-250h-270zM784 1503v250h271v-250h-271z" />
<glyph unicode="&#xdd;" horiz-adv-x="1302" d="M14 1366h351l297 -516l288 516h336l-479 -793v-573h-313v571zM537 1468l149 320h334l-244 -320h-239z" />
<glyph unicode="&#xde;" horiz-adv-x="1183" d="M133 0v1366h301v-223h197q122 0 216 -36t150 -98t84.5 -139t28.5 -165q0 -107 -38 -193.5t-102.5 -141t-147.5 -83.5t-177 -29h-211v-258h-301zM434 510h180q86 0 136.5 50.5t50.5 135.5q0 88 -51.5 141.5t-137.5 53.5h-178v-381z" />
<glyph unicode="&#xdf;" horiz-adv-x="1265" d="M104 0v956q0 117 36.5 203.5t104 139t156.5 77.5t201 25t206 -35.5t155 -112t61 -182.5q0 -56 -20 -107.5t-48 -88.5t-56.5 -69t-48.5 -60.5t-20 -51.5q0 -33 32 -53t100 -41q57 -19 97 -40.5t76 -56.5t54 -88.5t18 -125.5q0 -148 -110 -233t-279 -85q-215 0 -346 105 l150 198q82 -69 174 -69q131 0 131 82q0 45 -38.5 73t-135.5 60q-47 16 -78.5 33t-64.5 46t-49.5 73.5t-16.5 103.5q0 47 20 92t48 80.5t56 67.5t48 63.5t20 58.5q0 60 -40 93.5t-109 33.5q-98 0 -143.5 -59.5t-45.5 -159.5v-946h-295z" />
<glyph unicode="&#xe0;" horiz-adv-x="1054" d="M51 268q0 164 124 256t319 92q141 0 172 -8v21q0 69 -53 103t-132 34q-157 0 -272 -80l-121 180q177 127 434 127q214 0 321 -115t107 -319v-559h-276l-8 90q-103 -119 -291 -119q-55 0 -108 15t-103.5 47t-81.5 93t-31 142zM270 1397h293l98 -291h-217zM336 299 q0 -119 143 -119q74 0 130.5 45.5t56.5 120.5v78q-56 8 -105 8q-119 0 -172 -33.5t-53 -99.5z" />
<glyph unicode="&#xe1;" horiz-adv-x="1054" d="M51 268q0 164 124 256t319 92q141 0 172 -8v21q0 69 -53 103t-132 34q-157 0 -272 -80l-121 180q177 127 434 127q214 0 321 -115t107 -319v-559h-276l-8 90q-103 -119 -291 -119q-55 0 -108 15t-103.5 47t-81.5 93t-31 142zM336 299q0 -119 143 -119q74 0 130.5 45.5 t56.5 120.5v78q-56 8 -105 8q-119 0 -172 -33.5t-53 -99.5zM393 1106l99 291h290l-172 -291h-217z" />
<glyph unicode="&#xe2;" horiz-adv-x="1054" d="M51 268q0 164 124 256t319 92q141 0 172 -8v21q0 69 -53 103t-132 34q-157 0 -272 -80l-121 180q177 127 434 127q214 0 321 -115t107 -319v-559h-276l-8 90q-103 -119 -291 -119q-55 0 -108 15t-103.5 47t-81.5 93t-31 142zM178 1106l217 291h248l217 -291h-244l-98 135 l-97 -135h-243zM336 299q0 -119 143 -119q74 0 130.5 45.5t56.5 120.5v78q-56 8 -105 8q-119 0 -172 -33.5t-53 -99.5z" />
<glyph unicode="&#xe3;" horiz-adv-x="1054" d="M51 268q0 164 124 256t319 92q141 0 172 -8v21q0 69 -53 103t-132 34q-157 0 -272 -80l-121 180q177 127 434 127q214 0 321 -115t107 -319v-559h-276l-8 90q-103 -119 -291 -119q-55 0 -108 15t-103.5 47t-81.5 93t-31 142zM106 1270q48 51 114.5 87t139.5 36 q53 0 137 -43t136 -43q38 0 75 13t57.5 26t51.5 36l105 -161q-48 -52 -114.5 -88.5t-139.5 -36.5q-55 0 -137.5 43t-135.5 43q-38 0 -75 -12.5t-57.5 -25.5t-51.5 -36zM336 299q0 -119 143 -119q74 0 130.5 45.5t56.5 120.5v78q-56 8 -105 8q-119 0 -172 -33.5t-53 -99.5z " />
<glyph unicode="&#xe4;" horiz-adv-x="1054" d="M51 268q0 164 124 256t319 92q141 0 172 -8v21q0 69 -53 103t-132 34q-157 0 -272 -80l-121 180q177 127 434 127q214 0 321 -115t107 -319v-559h-276l-8 90q-103 -119 -291 -119q-55 0 -108 15t-103.5 47t-81.5 93t-31 142zM205 1135v233h252v-233h-252zM336 299 q0 -119 143 -119q74 0 130.5 45.5t56.5 120.5v78q-56 8 -105 8q-119 0 -172 -33.5t-53 -99.5zM600 1135v233h252v-233h-252z" />
<glyph unicode="&#xe5;" horiz-adv-x="1054" d="M51 268q0 164 124 256t319 92q141 0 172 -8v21q0 69 -53 103t-132 34q-157 0 -272 -80l-121 180q177 127 434 127q214 0 321 -115t107 -319v-559h-276l-8 90q-103 -119 -291 -119q-55 0 -108 15t-103.5 47t-81.5 93t-31 142zM281 1321q0 103 71.5 170.5t173.5 67.5 q104 0 176 -67.5t72 -170.5q0 -100 -72.5 -169t-173.5 -69q-103 0 -175 68.5t-72 169.5zM336 299q0 -119 143 -119q74 0 130.5 45.5t56.5 120.5v78q-56 8 -105 8q-119 0 -172 -33.5t-53 -99.5zM444 1321q0 -35 23.5 -59.5t58.5 -24.5t59.5 24.5t24.5 59.5t-23.5 59.5 t-58.5 24.5t-59.5 -24.5t-24.5 -59.5z" />
<glyph unicode="&#xe6;" horiz-adv-x="1683" d="M51 272q0 163 123 249.5t320 86.5q64 0 172 -8v29q0 70 -53.5 103.5t-139.5 33.5q-149 0 -264 -80l-121 180q177 127 420 127q212 0 323 -123q114 123 326 123q223 0 344 -151t121 -400v-49h-684q0 -79 71 -136.5t183 -57.5q171 0 291 92q20 -31 59.5 -93t59.5 -94 q-3 -2 -23.5 -16.5t-36.5 -24t-45 -25.5t-60 -26.5t-70 -22t-86.5 -17t-98.5 -5.5q-246 0 -385 152q-79 -81 -168 -115.5t-213 -34.5q-73 0 -136 17t-115.5 51.5t-83 94.5t-30.5 140zM332 299q0 -57 37.5 -88t109.5 -31q81 0 134 44.5t53 121.5v70q-30 6 -123 6 q-211 0 -211 -123zM938 582h408q0 74 -52 128t-147 54q-96 0 -152.5 -57.5t-56.5 -124.5z" />
<glyph unicode="&#xe7;" horiz-adv-x="997" d="M66 481q0 141 66 258t185 185.5t267 68.5q245 0 389 -157l-178 -193q-82 94 -205 94q-102 0 -165 -75.5t-63 -180.5q0 -100 63.5 -178t164.5 -78q127 0 209 94l172 -192q-65 -72 -163 -116t-224 -44q-231 0 -374.5 143.5t-143.5 370.5zM326 -440l28 146q83 -27 144 -27 q114 0 114 61q0 56 -106 56q-71 0 -135 -25l26 139q98 25 176 25q104 0 172 -50.5t68 -140.5q0 -104 -81 -160.5t-193 -56.5q-131 0 -213 33z" />
<glyph unicode="&#xe8;" horiz-adv-x="1095" d="M66 483q0 81 21.5 156.5t63.5 139.5t101 112t138.5 75t170.5 27q226 0 350.5 -151.5t124.5 -399.5v-49h-684q2 -81 70.5 -137.5t181.5 -56.5q171 0 291 92l121 -187q-2 -1 -23.5 -16t-37 -24t-45.5 -25.5t-61 -27t-70 -22t-86.5 -17t-98.5 -5.5q-244 0 -386 142t-142 374 zM303 1397h293l98 -291h-217zM352 582h406q0 68 -52.5 125t-146.5 57q-95 0 -151 -57t-56 -125z" />
<glyph unicode="&#xe9;" horiz-adv-x="1095" d="M66 483q0 81 21.5 156.5t63.5 139.5t101 112t138.5 75t170.5 27q226 0 350.5 -151.5t124.5 -399.5v-49h-684q2 -81 70.5 -137.5t181.5 -56.5q171 0 291 92l121 -187q-2 -1 -23.5 -16t-37 -24t-45.5 -25.5t-61 -27t-70 -22t-86.5 -17t-98.5 -5.5q-244 0 -386 142t-142 374 zM352 582h406q0 68 -52.5 125t-146.5 57q-95 0 -151 -57t-56 -125zM444 1106l99 291h291l-172 -291h-218z" />
<glyph unicode="&#xea;" horiz-adv-x="1095" d="M66 483q0 81 21.5 156.5t63.5 139.5t101 112t138.5 75t170.5 27q226 0 350.5 -151.5t124.5 -399.5v-49h-684q2 -81 70.5 -137.5t181.5 -56.5q171 0 291 92l121 -187q-2 -1 -23.5 -16t-37 -24t-45.5 -25.5t-61 -27t-70 -22t-86.5 -17t-98.5 -5.5q-244 0 -386 142t-142 374 zM211 1106l217 291h248l217 -291h-244l-98 135l-97 -135h-243zM352 582h406q0 68 -52.5 125t-146.5 57q-95 0 -151 -57t-56 -125z" />
<glyph unicode="&#xeb;" horiz-adv-x="1095" d="M66 483q0 81 21.5 156.5t63.5 139.5t101 112t138.5 75t170.5 27q226 0 350.5 -151.5t124.5 -399.5v-49h-684q2 -81 70.5 -137.5t181.5 -56.5q171 0 291 92l121 -187q-2 -1 -23.5 -16t-37 -24t-45.5 -25.5t-61 -27t-70 -22t-86.5 -17t-98.5 -5.5q-244 0 -386 142t-142 374 zM227 1135v233h252v-233h-252zM352 582h406q0 68 -52.5 125t-146.5 57q-95 0 -151 -57t-56 -125zM623 1135v233h251v-233h-251z" />
<glyph unicode="&#xec;" horiz-adv-x="528" d="M-10 1397h293l98 -291h-217zM117 0v961h295v-961h-295z" />
<glyph unicode="&#xed;" horiz-adv-x="528" d="M117 0v961h295v-961h-295zM150 1106l98 291h291l-172 -291h-217z" />
<glyph unicode="&#xee;" horiz-adv-x="528" d="M-74 1106l217 291h248l217 -291h-243l-99 135l-96 -135h-244zM117 0v961h295v-961h-295z" />
<glyph unicode="&#xef;" horiz-adv-x="528" d="M-57 1135v233h252v-233h-252zM117 0v961h295v-961h-295zM338 1135v233h252v-233h-252z" />
<glyph unicode="&#xf0;" horiz-adv-x="1144" d="M66 449q0 132 64 240t174 169.5t241 61.5q99 0 190 -31q-61 139 -211 221l-96 -143l-133 88l76 112q-54 16 -154 27l37 201q128 -9 244 -37l84 123l133 -86l-62 -92q113 -54 196.5 -133.5t132.5 -176.5t72 -202.5t23 -223.5q0 -287 -144.5 -443.5t-381.5 -156.5 q-99 0 -187 33.5t-154.5 94t-105 152.5t-38.5 202zM352 453q0 -99 59.5 -164.5t151.5 -65.5q103 0 165.5 79.5t62.5 223.5q0 62 -13 115q-84 49 -180 49q-107 0 -176.5 -62.5t-69.5 -174.5z" />
<glyph unicode="&#xf1;" horiz-adv-x="1150" d="M111 0v961h282l8 -105q48 58 124.5 92.5t160.5 34.5q169 0 265 -100t96 -289v-594h-295v553q0 80 -40.5 127t-111.5 47q-94 0 -145.5 -60.5t-51.5 -150.5v-516h-292zM159 1270q48 51 114.5 87t139.5 36q53 0 137 -43t136 -43q38 0 75 13t57.5 26t51.5 36l104 -161 q-48 -52 -114.5 -88.5t-139.5 -36.5q-55 0 -137 43t-135 43q-38 0 -75 -12.5t-57.5 -25.5t-51.5 -36z" />
<glyph unicode="&#xf2;" horiz-adv-x="1163" d="M66 481q0 142 64.5 258.5t183.5 185t268 68.5q224 0 369 -147.5t145 -364.5q0 -141 -64.5 -258t-183 -186.5t-266.5 -69.5q-149 0 -268 69.5t-183.5 186.5t-64.5 258zM323 1397h293l98 -291h-217zM350 481q0 -105 62.5 -181.5t169.5 -76.5t168 76.5t61 181.5t-61 180.5 t-168 75.5t-169.5 -75.5t-62.5 -180.5z" />
<glyph unicode="&#xf3;" horiz-adv-x="1163" d="M66 481q0 142 64.5 258.5t183.5 185t268 68.5q224 0 369 -147.5t145 -364.5q0 -141 -64.5 -258t-183 -186.5t-266.5 -69.5q-149 0 -268 69.5t-183.5 186.5t-64.5 258zM350 481q0 -105 62.5 -181.5t169.5 -76.5t168 76.5t61 181.5t-61 180.5t-168 75.5t-169.5 -75.5 t-62.5 -180.5zM451 1106l98 291h291l-172 -291h-217z" />
<glyph unicode="&#xf4;" horiz-adv-x="1163" d="M66 481q0 142 64.5 258.5t183.5 185t268 68.5q224 0 369 -147.5t145 -364.5q0 -141 -64.5 -258t-183 -186.5t-266.5 -69.5q-149 0 -268 69.5t-183.5 186.5t-64.5 258zM242 1106l217 291h248l217 -291h-244l-98 135l-97 -135h-243zM350 481q0 -105 62.5 -181.5 t169.5 -76.5t168 76.5t61 181.5t-61 180.5t-168 75.5t-169.5 -75.5t-62.5 -180.5z" />
<glyph unicode="&#xf5;" horiz-adv-x="1163" d="M66 481q0 142 64.5 258.5t183.5 185t268 68.5q224 0 369 -147.5t145 -364.5q0 -141 -64.5 -258t-183 -186.5t-266.5 -69.5q-149 0 -268 69.5t-183.5 186.5t-64.5 258zM176 1270q48 51 114.5 87t139.5 36q53 0 136.5 -43t135.5 -43q38 0 75 13t58 26t52 36l104 -161 q-48 -52 -114.5 -88.5t-139.5 -36.5q-55 0 -137 43t-135 43q-38 0 -75 -12.5t-57.5 -25.5t-51.5 -36zM350 481q0 -105 62.5 -181.5t169.5 -76.5t168 76.5t61 181.5t-61 180.5t-168 75.5t-169.5 -75.5t-62.5 -180.5z" />
<glyph unicode="&#xf6;" horiz-adv-x="1163" d="M66 481q0 142 64.5 258.5t183.5 185t268 68.5q224 0 369 -147.5t145 -364.5q0 -141 -64.5 -258t-183 -186.5t-266.5 -69.5q-149 0 -268 69.5t-183.5 186.5t-64.5 258zM258 1135v233h252v-233h-252zM350 481q0 -105 62.5 -181.5t169.5 -76.5t168 76.5t61 181.5t-61 180.5 t-168 75.5t-169.5 -75.5t-62.5 -180.5zM653 1135v233h252v-233h-252z" />
<glyph unicode="&#xf7;" d="M150 535v235h817v-235h-817zM428 182v242h260v-242h-260zM428 883v241h260v-241h-260z" />
<glyph unicode="&#xf8;" horiz-adv-x="1163" d="M66 481q0 142 64.5 258.5t183.5 185t268 68.5q118 0 221 -47l90 129l139 -92l-90 -131q154 -154 154 -371q0 -141 -64.5 -258t-183 -186.5t-266.5 -69.5q-125 0 -224 45l-88 -127l-139 92l88 129q-153 153 -153 375zM346 481q0 -86 35 -143l272 393q-34 12 -71 12 q-109 0 -172.5 -78t-63.5 -184zM508 227q42 -10 74 -10q110 0 172.5 78.5t62.5 185.5q0 75 -35 140z" />
<glyph unicode="&#xf9;" horiz-adv-x="1148" d="M104 365v596h295v-553q0 -83 40.5 -130t117.5 -47q87 0 137.5 61.5t50.5 149.5v519h293v-961h-282l-8 102q-48 -57 -125 -92t-160 -35q-168 0 -263.5 100.5t-95.5 289.5zM323 1397h293l98 -291h-217z" />
<glyph unicode="&#xfa;" horiz-adv-x="1148" d="M104 365v596h295v-553q0 -83 40.5 -130t117.5 -47q87 0 137.5 61.5t50.5 149.5v519h293v-961h-282l-8 102q-48 -57 -125 -92t-160 -35q-168 0 -263.5 100.5t-95.5 289.5zM449 1106l98 291h291l-172 -291h-217z" />
<glyph unicode="&#xfb;" horiz-adv-x="1148" d="M104 365v596h295v-553q0 -83 40.5 -130t117.5 -47q87 0 137.5 61.5t50.5 149.5v519h293v-961h-282l-8 102q-48 -57 -125 -92t-160 -35q-168 0 -263.5 100.5t-95.5 289.5zM234 1106l217 291h248l217 -291h-244l-98 135l-97 -135h-243z" />
<glyph unicode="&#xfc;" horiz-adv-x="1148" d="M104 365v596h295v-553q0 -83 40.5 -130t117.5 -47q87 0 137.5 61.5t50.5 149.5v519h293v-961h-282l-8 102q-48 -57 -125 -92t-160 -35q-168 0 -263.5 100.5t-95.5 289.5zM254 1135v233h252v-233h-252zM649 1135v233h252v-233h-252z" />
<glyph unicode="&#xfd;" horiz-adv-x="1126" d="M10 961h336l240 -607l217 607h313l-393 -955q-8 -19 -26 -63.5t-26.5 -65t-26.5 -60t-30 -59t-33.5 -51.5t-40 -48.5t-45.5 -37t-55 -30.5t-63.5 -17.5t-75.5 -7.5q-145 0 -258 80l119 202q62 -47 119 -47q47 0 78.5 29.5t60.5 101.5l29 78zM461 1106l98 291h291 l-172 -291h-217z" />
<glyph unicode="&#xfe;" horiz-adv-x="1167" d="M109 -412v1778h292v-504q45 57 120 87t155 30q102 0 184.5 -40.5t133.5 -109t78.5 -155t27.5 -182.5q0 -130 -44 -233t-117 -164.5t-160 -93.5t-181 -32q-15 0 -29 0.5t-28 2.5t-23.5 3t-23.5 4.5t-20.5 4.5t-21 5.5t-17 5.5t-18 6t-16.5 5v-418h-292zM401 254 q56 -39 170 -39q109 0 171.5 72.5t62.5 197.5q0 105 -49.5 173.5t-151.5 68.5q-93 0 -148 -65t-55 -152v-256z" />
<glyph unicode="&#xff;" horiz-adv-x="1126" d="M10 961h336l240 -607l217 607h313l-393 -955q-8 -19 -26 -63.5t-26.5 -65t-26.5 -60t-30 -59t-33.5 -51.5t-40 -48.5t-45.5 -37t-55 -30.5t-63.5 -17.5t-75.5 -7.5q-145 0 -258 80l119 202q62 -47 119 -47q47 0 78.5 29.5t60.5 101.5l29 78zM244 1135v233h252v-233h-252z M639 1135v233h252v-233h-252z" />
<glyph unicode="&#x152;" horiz-adv-x="2203" d="M80 684q0 200 91 364.5t248.5 257.5t346.5 93q155 0 266.5 -57t159.5 -140v164h891v-270h-625v-267h488v-262h-488v-295h670v-272h-936v164q-69 -91 -178.5 -143t-253.5 -52q-142 0 -268 55t-216.5 150t-143 227.5t-52.5 282.5zM401 688q0 -181 107 -306.5t283 -125.5 q116 0 205.5 59.5t135.5 157.5t46 215q0 183 -106 305.5t-284 122.5q-175 0 -281 -123t-106 -305z" />
<glyph unicode="&#x153;" horiz-adv-x="1832" d="M66 481q0 142 64.5 258.5t183.5 185t268 68.5q220 0 354 -157q135 157 362 157q155 0 264 -73t160.5 -195t51.5 -283v-49h-684q2 -81 70 -137.5t181 -56.5q171 0 291 92l121 -187q-2 -1 -23.5 -16t-37 -24t-45.5 -25.5t-61 -27t-70 -22t-86.5 -17t-98.5 -5.5 q-250 0 -395 158q-61 -74 -153.5 -116t-200.5 -42q-149 0 -268 69.5t-183.5 186.5t-64.5 258zM350 481q0 -105 62.5 -181.5t169.5 -76.5t168 76.5t61 181.5t-61 180.5t-168 75.5t-169.5 -75.5t-62.5 -180.5zM1090 582h405q0 68 -52.5 125t-146.5 57q-95 0 -150.5 -57 t-55.5 -125z" />
<glyph unicode="&#x178;" horiz-adv-x="1302" d="M14 1366h351l297 -516l288 516h336l-479 -793v-573h-313v571zM293 1503v250h270v-250h-270zM741 1503v250h271v-250h-271z" />
<glyph unicode="&#x2c6;" horiz-adv-x="909" d="M115 1106l217 291h248l217 -291h-244l-98 135l-97 -135h-243z" />
<glyph unicode="&#x2dc;" horiz-adv-x="923" d="M53 1270q48 51 114.5 87t139.5 36q53 0 137 -43t136 -43q38 0 75 13t57.5 26t51.5 36l104 -161q-48 -52 -114.5 -88.5t-139.5 -36.5q-55 0 -137 43t-135 43q-38 0 -75 -12.5t-57.5 -25.5t-51.5 -36z" />
<glyph unicode="&#x2000;" horiz-adv-x="915" />
<glyph unicode="&#x2001;" horiz-adv-x="1831" />
<glyph unicode="&#x2002;" horiz-adv-x="915" />
<glyph unicode="&#x2003;" horiz-adv-x="1831" />
<glyph unicode="&#x2004;" horiz-adv-x="610" />
<glyph unicode="&#x2005;" horiz-adv-x="457" />
<glyph unicode="&#x2006;" horiz-adv-x="305" />
<glyph unicode="&#x2007;" horiz-adv-x="305" />
<glyph unicode="&#x2008;" horiz-adv-x="228" />
<glyph unicode="&#x2009;" horiz-adv-x="366" />
<glyph unicode="&#x200a;" horiz-adv-x="101" />
<glyph unicode="&#x2010;" horiz-adv-x="911" d="M131 432v281h649v-281h-649z" />
<glyph unicode="&#x2011;" horiz-adv-x="911" d="M131 432v281h649v-281h-649z" />
<glyph unicode="&#x2012;" horiz-adv-x="911" d="M131 432v281h649v-281h-649z" />
<glyph unicode="&#x2013;" horiz-adv-x="1024" d="M0 432v281h1024v-281h-1024z" />
<glyph unicode="&#x2014;" horiz-adv-x="2048" d="M0 432v281h2048v-281h-2048z" />
<glyph unicode="&#x2018;" horiz-adv-x="575" d="M90 895l148 469h219l-49 -469h-318z" />
<glyph unicode="&#x2019;" horiz-adv-x="575" d="M117 895l49 469h319l-149 -469h-219z" />
<glyph unicode="&#x201a;" horiz-adv-x="575" d="M117 -156l49 469h319l-149 -469h-219z" />
<glyph unicode="&#x201c;" horiz-adv-x="999" d="M90 895l148 469h219l-49 -469h-318zM512 895l147 469h220l-50 -469h-317z" />
<glyph unicode="&#x201d;" horiz-adv-x="999" d="M117 895l49 469h319l-149 -469h-219zM539 895l49 469h319l-149 -469h-219z" />
<glyph unicode="&#x201e;" horiz-adv-x="997" d="M117 -156l49 469h319l-149 -469h-219zM539 -156l49 469h319l-149 -469h-219z" />
<glyph unicode="&#x2022;" horiz-adv-x="899" d="M156 690q0 123 85 208t208 85q122 0 208 -85t86 -208t-86 -208t-208 -85q-123 0 -208 85t-85 208z" />
<glyph unicode="&#x2026;" horiz-adv-x="1751" d="M125 0v326h334v-326h-334zM709 0v326h333v-326h-333zM1292 0v326h334v-326h-334z" />
<glyph unicode="&#x202f;" horiz-adv-x="366" />
<glyph unicode="&#x2039;" horiz-adv-x="729" d="M109 494l213 403h290l-209 -403l209 -404h-290z" />
<glyph unicode="&#x203a;" horiz-adv-x="729" d="M117 90l209 404l-209 403h291l213 -403l-213 -404h-291z" />
<glyph unicode="&#x205f;" horiz-adv-x="457" />
<glyph unicode="&#x20ac;" d="M25 414l57 164h117q-2 25 -2 73v64h-158l55 166h127q52 203 186 324.5t343 121.5q228 0 372 -156l-153 -196q-82 88 -207 88q-167 0 -234 -182h344l-55 -166h-319q-2 -23 -2 -64q0 -48 2 -73h352l-57 -164h-261q66 -176 230 -176q126 0 209 86l151 -195 q-144 -156 -372 -156q-208 0 -340.5 120t-184.5 321h-200z" />
<glyph unicode="&#x2122;" horiz-adv-x="1798" d="M61 1176v190h732v-190h-254v-594h-224v594h-254zM856 582l31 784h192l203 -330l203 330h198l31 -784h-207l-16 460l-160 -270h-100l-160 260l-14 -450h-201z" />
<glyph unicode="&#xe000;" horiz-adv-x="962" d="M0 0v963h963v-963h-963z" />
</font>
</defs>
</svg>
