<?xml version="1.0" standalone="no"?>
<!DOCTYPE svg PUBLIC "-//W3C//DTD SVG 1.1//EN" "http://www.w3.org/Graphics/SVG/1.1/DTD/svg11.dtd" >
<svg xmlns="http://www.w3.org/2000/svg">
<metadata></metadata>
<defs>
<font id="effraregular" horiz-adv-x="1116" >
<font-face units-per-em="2048" ascent="1638" descent="-410" />
<missing-glyph horiz-adv-x="370" />
<glyph unicode="&#xfb01;" horiz-adv-x="1114" d="M27 799v153h172v41q0 108 33.5 188t94 127t138 70t172.5 23q87 0 178.5 -27.5t161.5 -77.5l-84 -137q-118 84 -256 84q-127 0 -190.5 -52t-63.5 -175v-64h596v-952h-184v799h-412v-799h-184v799h-172z" />
<glyph unicode="&#xfb02;" horiz-adv-x="1128" d="M27 799v153h172v47q0 207 114.5 304.5t319.5 97.5q114 0 216 -30.5t152 -65.5v-1305h-184v1210q-67 33 -186 33q-135 0 -191.5 -55.5t-56.5 -188.5v-47h270v-153h-270v-799h-184v799h-172z" />
<glyph unicode="&#xfb03;" horiz-adv-x="1742" d="M25 799v153h174v66q0 83 20 149.5t52 109.5t75 71.5t87.5 40.5t90.5 12q155 0 269 -105l-91 -118q-72 63 -153 63q-166 0 -166 -217v-72h444v41q0 107 33.5 187.5t94 127.5t138.5 70t173 23q87 0 178.5 -27.5t161.5 -77.5l-84 -137q-118 84 -256 84q-127 0 -190.5 -52 t-63.5 -175v-64h596v-952h-185v799h-411v-799h-185v799h-444v-799h-184v799h-174z" />
<glyph unicode="&#xfb04;" horiz-adv-x="1757" d="M25 799v153h174v66q0 83 20 149.5t52 109.5t75 71.5t87.5 40.5t90.5 12q155 0 269 -105l-91 -118q-72 63 -153 63q-166 0 -166 -217v-72h444v47q0 207 115 304.5t320 97.5q114 0 216 -30.5t152 -65.5v-1305h-184v1210q-67 33 -186 33q-135 0 -191.5 -55.5t-56.5 -188.5 v-47h270v-153h-270v-799h-185v799h-444v-799h-184v799h-174z" />
<glyph horiz-adv-x="2048" />
<glyph horiz-adv-x="2048" />
<glyph unicode="&#xd;" horiz-adv-x="2048" />
<glyph unicode=" "  horiz-adv-x="370" />
<glyph unicode="&#x09;" horiz-adv-x="370" />
<glyph unicode="&#xa0;" horiz-adv-x="370" />
<glyph unicode="!" horiz-adv-x="528" d="M147 0v223h230v-223h-230zM160 1366h205l-5 -973h-194z" />
<glyph unicode="&#x22;" horiz-adv-x="745" d="M131 913v453h176v-453h-176zM446 913v453h177v-453h-177z" />
<glyph unicode="#" horiz-adv-x="1546" d="M133 336v147h283l84 314h-244v147h283l90 336h168l-90 -336h303l90 336h168l-90 -336h233v-147h-274l-82 -314h231v-147h-272l-90 -336h-166l90 336h-305l-90 -336h-166l90 336h-244zM582 483h305l84 314h-305z" />
<glyph unicode="$" d="M63 197l132 122q66 -75 140.5 -123t178.5 -59v457q-48 14 -82.5 25t-77.5 29.5t-73 37.5t-61 47.5t-49 61t-30 76.5t-12 96q0 141 98.5 235t286.5 111v180h127v-180q219 -21 344 -180l-131 -117q-83 105 -213 129v-406q383 -93 383 -399q0 -151 -106 -248.5t-277 -118.5 v-180h-127v176q-160 11 -272.5 76.5t-178.5 151.5zM307 971q0 -76 42.5 -121t164.5 -80v381q-106 -10 -156.5 -59t-50.5 -121zM641 139q103 13 152 64t49 143q0 77 -43.5 125t-157.5 88v-420z" />
<glyph unicode="%" horiz-adv-x="1826" d="M96 956q0 178 87 273.5t231 95.5t230.5 -95.5t86.5 -273.5t-86.5 -274t-230.5 -96t-231 96t-87 274zM254 956q0 -124 47 -182.5t113 -58.5q64 0 110.5 58.5t46.5 182.5t-46.5 182t-110.5 58q-66 0 -113 -58t-47 -182zM406 0l829 1290h174l-829 -1290h-174zM1094 354 q0 178 86.5 273.5t230.5 95.5t231 -95.5t87 -273.5t-87 -274t-231 -96t-230.5 96t-86.5 274zM1251 354q0 -124 47 -182.5t113 -58.5q64 0 111 58.5t47 182.5t-47 182t-111 58q-66 0 -113 -58t-47 -182z" />
<glyph unicode="&#x26;" horiz-adv-x="1306" d="M76 346q0 127 68.5 231.5t213.5 204.5l-24 31q-103 128 -103 266q0 131 99 226.5t264 95.5q74 0 133.5 -18.5t100 -52.5t67.5 -70.5t49 -83.5l-137 -89q-51 87 -98 119.5t-105 32.5q-84 0 -131 -45.5t-47 -112.5q0 -52 27.5 -103.5t81.5 -113.5l372 -436l178 227 l140 -110l-203 -254l250 -291h-238l-131 150q-83 -87 -176 -135t-221 -48q-203 0 -316.5 108t-113.5 271zM272 356q0 -95 63.5 -155t178.5 -60q87 0 151.5 38t122.5 106l-321 368q-107 -74 -151 -140.5t-44 -156.5z" />
<glyph unicode="'" horiz-adv-x="413" d="M119 913v453h176v-453h-176z" />
<glyph unicode="(" horiz-adv-x="593" d="M129 627q0 141 21.5 276.5t56 240t66 176.5t63.5 126h180q-77 -139 -132.5 -353t-55.5 -466q0 -249 55.5 -464t132.5 -353h-180q-32 53 -63.5 124.5t-66 175.5t-56 240t-21.5 277z" />
<glyph unicode=")" horiz-adv-x="593" d="M80 -190q76 137 132 353.5t56 463.5q0 250 -56 464t-132 355h178q31 -53 62.5 -125t66.5 -177t56.5 -241t21.5 -276t-21.5 -276t-56.5 -240.5t-66 -175.5t-63 -125h-178z" />
<glyph unicode="*" horiz-adv-x="1026" d="M129 924l256 137l-256 135l74 129l248 -156l-13 293h150l-10 -293l245 156l74 -129l-256 -135l256 -137l-74 -129l-245 155l10 -291h-150l13 291l-248 -155z" />
<glyph unicode="+" d="M150 578v159h329v322h160v-322h328v-159h-326v-322h-162v322h-329z" />
<glyph unicode="," horiz-adv-x="522" d="M135 -240l105 240h-82v227h231v-225l-141 -242h-113z" />
<glyph unicode="-" horiz-adv-x="899" d="M150 485v177h600v-177h-600z" />
<glyph unicode="." horiz-adv-x="524" d="M145 -2v229h232v-229h-232z" />
<glyph unicode="/" horiz-adv-x="831" d="M51 -33l545 1436h182l-540 -1436h-187z" />
<glyph unicode="0" d="M66 659q0 310 128.5 489t364.5 179t364 -178.5t128 -489.5q0 -317 -129 -502.5t-365 -185.5q-235 0 -363 185t-128 503zM258 659q0 -235 78 -376.5t221 -141.5q144 0 222.5 141.5t78.5 376.5q0 231 -78.5 363.5t-222.5 132.5t-221.5 -132.5t-77.5 -363.5z" />
<glyph unicode="1" d="M176 1098l363 198h166v-1132h225v-164h-641v164h229v932l-266 -144z" />
<glyph unicode="2" d="M119 1100q23 41 56.5 77.5t83.5 72t122.5 56.5t157.5 21q101 0 180.5 -28.5t127.5 -77t72.5 -109.5t24.5 -129q0 -69 -23.5 -132.5t-68.5 -119.5t-90 -98t-109 -92q-80 -63 -124 -100.5t-93 -88t-70.5 -95t-21.5 -89.5h614v-168h-819v133q0 100 45.5 180.5t128.5 163.5 q60 60 134.5 124t121.5 102.5t91 82.5t64.5 88.5t20.5 96.5q0 32 -12 63.5t-36.5 60t-68.5 46.5t-102 18q-54 0 -98 -14t-77 -41t-52 -48t-43 -55z" />
<glyph unicode="3" d="M70 109l108 133q64 -52 133 -82.5t164 -30.5q129 0 205 69.5t76 186.5q0 108 -66.5 174t-187.5 66q-63 0 -127 -23l-60 96l363 422h-516v170h741v-147l-332 -387q171 0 275 -102.5t104 -270.5q0 -196 -134.5 -307t-342.5 -111q-239 0 -403 144z" />
<glyph unicode="4" d="M100 268v158l586 866h186v-864h140v-160h-140v-268h-178v268h-594zM283 428h411v616z" />
<glyph unicode="5" d="M78 106l104 136q65 -54 133.5 -82.5t163.5 -28.5q137 0 211 76.5t74 195.5q0 44 -13 85t-42 81t-85.5 64t-134.5 24q-53 0 -97.5 -8.5t-67 -18t-58.5 -26.5l-94 72l123 614h633v-172h-504l-59 -338q59 35 174 35q188 0 302.5 -107t114.5 -298q0 -91 -29 -170t-87 -141.5 t-153 -98t-218 -35.5q-236 0 -391 141z" />
<glyph unicode="6" d="M129 584q0 348 143.5 544.5t409.5 196.5q164 0 297 -86l-84 -145q-14 10 -36 22t-75.5 27.5t-107.5 15.5q-109 0 -191.5 -64t-123.5 -161.5t-44 -212.5q41 28 72.5 46t95 37t131.5 19q187 0 292.5 -111.5t105.5 -312.5q0 -191 -119.5 -312.5t-304.5 -121.5 q-221 0 -341 156t-120 463zM315 559q0 -430 273 -430q103 0 176.5 74.5t73.5 199.5q0 117 -59 186.5t-181 69.5q-168 0 -283 -100z" />
<glyph unicode="7" d="M141 1118v174h826v-168q-94 -145 -255.5 -517.5t-226.5 -606.5h-198q89 274 240.5 616t248.5 502h-635z" />
<glyph unicode="8" d="M90 346q0 124 77 216t193 143q-89 47 -142.5 119.5t-53.5 170.5q0 147 107.5 239.5t287.5 92.5q186 0 289.5 -89.5t103.5 -229.5q0 -97 -53 -175t-151 -122q44 -19 86 -46.5t88.5 -71.5t75 -107.5t28.5 -137.5q0 -69 -26.5 -133.5t-80 -121.5t-147 -91.5t-213.5 -34.5 q-99 0 -180 23t-133.5 60.5t-88.5 87.5t-51.5 102t-15.5 106zM281 352q0 -60 25 -105.5t66 -71.5t88.5 -39t98.5 -13q52 0 99 13t88 39t65.5 71.5t24.5 105.5q0 92 -83 163t-202 103q-116 -31 -193 -102t-77 -164zM342 995q0 -70 57.5 -129.5t159.5 -89.5q100 31 158.5 91.5 t58.5 138.5q0 76 -60 126t-157 50q-99 0 -158 -50.5t-59 -136.5z" />
<glyph unicode="9" d="M94 891q0 191 122 313.5t308 122.5q221 0 341 -156.5t120 -463.5q0 -345 -137.5 -541.5t-398.5 -196.5q-95 0 -181 27t-131 57l80 150q18 -11 42.5 -23.5t82.5 -29.5t111 -17q84 0 149.5 35.5t106 96.5t62.5 137t26 163q-120 -100 -303 -100t-291.5 118t-108.5 308z M270 889q0 -113 62 -184.5t188 -71.5q167 0 279 98q0 207 -67 318.5t-206 111.5q-104 0 -180 -73.5t-76 -198.5z" />
<glyph unicode=":" horiz-adv-x="524" d="M150 -2v229h231v-229h-231zM150 725v229h231v-229h-231z" />
<glyph unicode=";" horiz-adv-x="538" d="M141 -240l105 240h-82v227h231v-225l-141 -242h-113zM164 725v229h231v-229h-231z" />
<glyph unicode="&#x3c;" d="M145 596v119l750 393l70 -139l-605 -314l605 -313l-70 -139z" />
<glyph unicode="=" d="M150 389v160h817v-160h-817zM150 745v160h817v-160h-817z" />
<glyph unicode="&#x3e;" d="M150 342l604 313l-604 314l69 139l750 -393v-119l-750 -393z" />
<glyph unicode="?" horiz-adv-x="1036" d="M82 1202q22 29 54 58.5t84.5 63.5t129 55.5t162.5 21.5q194 0 307 -99t113 -245q0 -58 -13.5 -105t-43 -87.5t-64 -73t-88.5 -72.5q-43 -32 -61.5 -47t-46.5 -42.5t-39 -50t-20 -56t-9 -74.5v-56h-185v58q0 112 46.5 200t148.5 162q5 4 32.5 25t34.5 26.5t29.5 25t30 29 t23 29t21 34t10.5 34.5t5 41q0 78 -63.5 126t-167.5 48q-166 0 -307 -141zM342 0v225h227v-225h-227z" />
<glyph unicode="@" horiz-adv-x="1957" d="M98 575q0 163 48 300t131 233.5t195.5 163.5t241 99t267.5 32q189 0 348.5 -51t279 -148t186.5 -250.5t67 -347.5q0 -143 -28 -257.5t-72 -184t-101.5 -116t-110.5 -64t-106 -17.5q-75 0 -134.5 32.5t-82.5 106.5q-79 -79 -162 -108t-186 -29q-56 0 -110.5 17.5 t-103.5 52t-79.5 94.5t-30.5 137q0 156 109.5 248t308.5 92q135 0 229 -12v35q0 96 -61 143t-170 47q-68 0 -126.5 -15.5t-89.5 -32t-67 -42.5l-88 127q146 123 391 123q182 0 286.5 -89t104.5 -253v-412q0 -54 25 -79t66 -25q38 0 74 26.5t69 81t53.5 153t20.5 226.5 q0 131 -38 238.5t-104 181t-157.5 123.5t-195.5 73t-220 23q-100 0 -195.5 -21.5t-188 -71.5t-161.5 -124.5t-111.5 -190t-42.5 -257.5q0 -80 14.5 -153t36 -125t52 -98.5t55.5 -75t53 -52.5l-112 -111q-50 37 -96.5 93t-88.5 131.5t-67 174.5t-25 205zM735 276 q0 -72 52.5 -112.5t148.5 -40.5q104 0 185 63t81 150v115q-63 14 -217 14q-71 0 -122.5 -18t-78 -47.5t-38 -60t-11.5 -63.5z" />
<glyph unicode="A" horiz-adv-x="1312" d="M20 0l535 1366h201l534 -1366h-219l-141 381h-561l-142 -381h-207zM426 547h444l-221 600z" />
<glyph unicode="B" horiz-adv-x="1208" d="M156 0v1366h462q203 0 309.5 -98.5t106.5 -249.5q0 -63 -23 -118.5t-58 -92t-73.5 -58.5t-72.5 -26q38 -5 75.5 -17.5t79 -38.5t72.5 -62t51.5 -94t20.5 -128q0 -383 -512 -383h-438zM346 170h238q50 0 88.5 3.5t86 16.5t78 36t51.5 65.5t21 101.5q0 56 -20 99 t-50.5 68.5t-73.5 41.5t-83.5 21.5t-85.5 5.5h-250v-459zM346 797h244q65 0 120 19.5t94.5 67t39.5 117.5q0 195 -254 195h-244v-399z" />
<glyph unicode="C" horiz-adv-x="1386" d="M98 678q0 199 85.5 363t243.5 261t357 97q103 0 193 -25.5t154 -68.5t108 -86t76 -91l-139 -118q-30 41 -60.5 73t-78 67t-111.5 54t-140 19q-146 0 -257 -74t-167.5 -196t-56.5 -271q0 -148 57.5 -268.5t167 -191t250.5 -70.5q51 0 96 7.5t82 23.5t64.5 30t55 38.5 t40.5 36.5t35 37.5t25 28.5l137 -114q-19 -32 -50.5 -66.5t-82 -72t-108.5 -67t-135.5 -48.5t-158.5 -19q-197 0 -353.5 92t-242.5 254t-86 365z" />
<glyph unicode="D" horiz-adv-x="1464" d="M156 0v1366h456q131 0 243 -25.5t204.5 -79.5t157.5 -134t101 -193.5t36 -253.5q0 -169 -55 -300t-154.5 -213.5t-234.5 -124.5t-300 -42h-454zM352 176h254q259 0 400 127.5t141 372.5q0 252 -138.5 383t-408.5 131h-248v-1014z" />
<glyph unicode="E" horiz-adv-x="1155" d="M156 0v1366h860v-174h-664v-397h500v-177h-500v-442h713v-176h-909z" />
<glyph unicode="F" horiz-adv-x="1083" d="M156 0v1366h858v-176h-662v-418h504v-174h-504v-598h-196z" />
<glyph unicode="G" horiz-adv-x="1476" d="M100 680q0 199 85.5 362.5t243.5 260t357 96.5q339 0 531 -269l-139 -118q-150 213 -387 213q-110 0 -202.5 -43t-154 -117t-95.5 -173t-34 -210q0 -235 140 -386t356 -151t344 101v278h-291v170h479v-544q-203 -183 -538 -183q-209 0 -368 93t-243 254.5t-84 365.5z" />
<glyph unicode="H" horiz-adv-x="1452" d="M156 0v1366h196v-571h748v571h196v-1366h-196v618h-748v-618h-196z" />
<glyph unicode="I" horiz-adv-x="507" d="M156 0v1366h196v-1366h-196z" />
<glyph unicode="J" horiz-adv-x="1011" d="M29 154l139 122q61 -69 121 -99t143 -30q104 0 170 68t66 203v948h196v-965q0 -115 -34 -201t-94.5 -136.5t-135.5 -74.5t-164 -24q-261 0 -407 189z" />
<glyph unicode="K" horiz-adv-x="1234" d="M156 0v1366h194v-621l572 621h225l-508 -557l569 -809h-235l-467 670l-156 -168v-502h-194z" />
<glyph unicode="L" horiz-adv-x="1122" d="M156 0v1366h196v-1192h711v-174h-907z" />
<glyph unicode="M" horiz-adv-x="1611" d="M139 0l64 1366h188l416 -711l416 711h184l63 -1366h-192l-45 1049l-385 -646h-98l-379 637l-47 -1040h-185z" />
<glyph unicode="N" horiz-adv-x="1447" d="M156 0v1366h198l746 -1067v1067h192v-1366h-196l-748 1069v-1069h-192z" />
<glyph unicode="O" horiz-adv-x="1595" d="M100 684q0 196 91 360.5t251.5 260.5t354.5 96t354.5 -96t252 -260.5t91.5 -360.5q0 -197 -91.5 -362t-252 -261t-354.5 -96q-193 0 -353.5 96t-252 261t-91.5 362zM305 686q0 -145 59.5 -266.5t173.5 -195.5t259 -74q146 0 260 74t173.5 195.5t59.5 266.5 q0 148 -59.5 269.5t-173 194.5t-260.5 73q-146 0 -259.5 -73t-173 -194.5t-59.5 -269.5z" />
<glyph unicode="P" horiz-adv-x="1159" d="M156 0v1366h432q107 0 191 -25.5t136 -66.5t86 -96.5t47 -110.5t13 -115q0 -198 -127.5 -306.5t-335.5 -108.5h-248v-537h-194zM350 705h246q127 0 195.5 63.5t68.5 179.5q0 117 -70.5 183.5t-193.5 66.5h-246v-493z" />
<glyph unicode="Q" horiz-adv-x="1595" d="M98 682q0 147 54 280t147 229.5t223 153t275 56.5q194 0 354.5 -96t252 -261t91.5 -362q0 -163 -64 -304t-178 -241l164 -198l-121 -103l-172 209q-157 -80 -327 -80q-145 0 -275 56.5t-223 152t-147 228.5t-54 280zM305 686q0 -147 59.5 -269t173.5 -196t259 -74 q116 0 209 46l-170 210l122 103l175 -217q74 72 114.5 175.5t40.5 221.5q0 147 -59.5 268.5t-173 195t-258.5 73.5q-146 0 -259.5 -73.5t-173 -195t-59.5 -268.5z" />
<glyph unicode="R" horiz-adv-x="1208" d="M156 0v1366h436q101 0 182.5 -23t135 -61.5t90 -91t52 -108.5t15.5 -117q0 -134 -63 -233.5t-189 -147.5l320 -584h-222l-292 559h-275v-559h-190zM346 725h262q126 0 192 62.5t66 170.5q0 112 -69.5 175t-192.5 63h-258v-471z" />
<glyph unicode="S" horiz-adv-x="1191" d="M76 205l139 127q47 -53 91 -89.5t118.5 -67t157.5 -30.5q134 0 210 61.5t76 166.5q0 107 -80.5 164.5t-252.5 95.5q-183 38 -288.5 137t-105.5 256q0 160 120 267.5t337 107.5q76 0 143 -15.5t109 -35t82 -50.5t56 -48t36 -42l-131 -120q-123 137 -303 137 q-121 0 -185.5 -59t-64.5 -136q0 -95 77 -145t247 -90q55 -13 101 -29.5t93.5 -41t83.5 -57.5t65 -75.5t44.5 -99.5t15.5 -125q0 -116 -63.5 -208.5t-173 -144t-244.5 -51.5q-173 0 -306 72t-204 168z" />
<glyph unicode="T" horiz-adv-x="1271" d="M49 1194v172h1174v-172h-488v-1194h-196v1194h-490z" />
<glyph unicode="U" horiz-adv-x="1378" d="M145 520v846h197v-799q0 -98 17 -170.5t55.5 -129.5t107.5 -86t168 -29q98 0 166.5 29t107 86t55.5 129.5t17 170.5v799h197v-846q0 -119 -33.5 -218.5t-98.5 -175.5t-170 -118.5t-241 -42.5q-109 0 -199 28t-153.5 78t-107 119.5t-64.5 152.5t-21 177z" />
<glyph unicode="V" horiz-adv-x="1298" d="M20 1366h220l415 -1122l416 1122h207l-528 -1366h-201z" />
<glyph unicode="W" horiz-adv-x="1798" d="M35 1366h217l262 -1102l297 1061h190l291 -1059l262 1100h205l-366 -1366h-209l-285 1010l-293 -1010h-207z" />
<glyph unicode="X" horiz-adv-x="1224" d="M18 0l478 707l-451 659h238l331 -498l328 498h215l-438 -653l485 -713h-235l-367 551l-366 -551h-218z" />
<glyph unicode="Y" horiz-adv-x="1181" d="M18 1366h220l356 -584l356 584h211l-473 -756v-610h-199v610z" />
<glyph unicode="Z" horiz-adv-x="1314" d="M104 0v172l850 1020h-809v174h1049v-174l-840 -1018h854v-174h-1104z" />
<glyph unicode="[" horiz-adv-x="645" d="M160 -190v1636h432v-166h-248v-1300h248v-170h-432z" />
<glyph unicode="\" horiz-adv-x="831" d="M51 1403h182l545 -1436h-186z" />
<glyph unicode="]" horiz-adv-x="645" d="M51 -20h248v1300h-248v166h434v-1636h-434v170z" />
<glyph unicode="^" horiz-adv-x="1124" d="M117 631l362 735h166l363 -735h-187l-260 549l-260 -549h-184z" />
<glyph unicode="_" horiz-adv-x="1034" d="M4 -143h1024v-105h-1024v105z" />
<glyph unicode="`" horiz-adv-x="915" d="M276 1386h205l109 -278h-154z" />
<glyph unicode="a" horiz-adv-x="1021" d="M72 270q0 156 109 247t308 91q145 0 232 -14v35q0 198 -240 198q-67 0 -124.5 -15.5t-87 -32t-66.5 -42.5l-86 125q141 119 385 119q186 0 290.5 -89.5t104.5 -252.5v-451q0 -141 2 -188h-172l-4 115q-52 -70 -138 -106t-182 -36q-49 0 -94.5 9.5t-89 32t-76 56t-52 85 t-19.5 114.5zM252 276q0 -77 53 -117t148 -40q105 0 186.5 67.5t81.5 155.5v109q-19 5 -89 10.5t-130 5.5q-59 0 -104.5 -12t-72.5 -31t-44 -45.5t-23 -51t-6 -51.5z" />
<glyph unicode="b" horiz-adv-x="1122" d="M127 33v1333h184v-518q38 49 113 88t182 39q138 0 238 -66.5t148 -176.5t48 -249q0 -226 -148.5 -369t-385.5 -143q-225 0 -379 62zM309 158q3 -1 19.5 -5.5t24.5 -6t27 -5.5t34.5 -5.5t39.5 -3t50 -1.5q157 0 252.5 96.5t95.5 251.5q0 67 -16 125.5t-47.5 106t-85.5 75 t-125 27.5q-128 0 -198.5 -81t-70.5 -195v-379z" />
<glyph unicode="c" horiz-adv-x="1009" d="M82 477q0 104 37.5 197t102.5 161t158.5 108t201.5 40q226 0 370 -160l-121 -116q-90 114 -249 114q-95 0 -168 -48.5t-109.5 -126t-36.5 -169.5q0 -90 36.5 -167.5t109.5 -127t168 -49.5q167 0 260 117l112 -119q-140 -160 -372 -160q-228 0 -364 141t-136 365z" />
<glyph unicode="d" horiz-adv-x="1126" d="M80 463q0 104 31 191.5t81 145.5t114.5 98.5t130 58.5t128.5 18q48 0 92.5 -8t66.5 -16t53.5 -22t35.5 -16v453h184v-1159q0 -139 2 -207h-180l-6 121q-124 -150 -309 -150t-304.5 135t-119.5 357zM268 461q0 -145 70.5 -237.5t206.5 -92.5q68 0 121.5 26t84 67.5 t46.5 87t16 89.5v340q-85 72 -233 72q-136 0 -224 -95.5t-88 -256.5z" />
<glyph unicode="e" horiz-adv-x="1097" d="M80 483q0 139 60 252.5t169 179.5t246 66q119 0 210.5 -46.5t145.5 -126t81.5 -177.5t27.5 -209h-752q3 -82 46.5 -149.5t114 -105.5t151.5 -38q109 0 188 36.5t123 84.5l104 -111q-21 -24 -51 -48t-81 -53.5t-125.5 -48t-159.5 -18.5q-223 0 -360.5 141.5t-137.5 370.5z M268 559h561q-8 116 -79.5 191t-194.5 75q-125 0 -203.5 -79t-83.5 -187z" />
<glyph unicode="f" horiz-adv-x="675" d="M27 799v153h172v78q0 182 95.5 276.5t235.5 94.5q170 0 283 -105l-92 -118q-75 63 -162 63q-176 0 -176 -227v-62h272v-153h-272v-799h-184v799h-172z" />
<glyph unicode="g" horiz-adv-x="1120" d="M80 465q0 223 149 366.5t387 143.5q215 0 379 -66v-909q0 -207 -119.5 -320.5t-336.5 -113.5q-235 0 -371 104l86 135q116 -79 283 -79q133 0 202.5 73.5t69.5 200.5v117q-2 -1 -19 -16.5t-27 -23t-31.5 -23t-42 -24t-48 -19t-60 -15t-67.5 -4.5q-204 0 -319 131.5 t-115 341.5zM268 467q0 -140 68 -227.5t207 -87.5q129 0 198.5 70t69.5 167v395q-91 29 -195 29q-154 0 -251 -97t-97 -249z" />
<glyph unicode="h" horiz-adv-x="1112" d="M125 0v1366h182v-555q122 164 318 164q182 0 274 -106.5t92 -297.5v-571h-184v557q0 258 -219 258q-76 0 -132 -31.5t-87 -86.5t-45.5 -118.5t-14.5 -136.5v-442h-184z" />
<glyph unicode="i" horiz-adv-x="454" d="M123 1122v207h207v-207h-207zM135 0v952h184v-952h-184z" />
<glyph unicode="j" horiz-adv-x="454" d="M-184 -334l75 127q57 -43 119 -43q70 0 97.5 66.5t27.5 222.5v913h184v-964q0 -68 -6.5 -121.5t-25 -107.5t-50 -89.5t-84.5 -57.5t-124 -22q-120 0 -213 76zM123 1122v207h207v-207h-207z" />
<glyph unicode="k" horiz-adv-x="1001" d="M125 0v1366h184v-805l400 391h221l-361 -352l414 -600h-219l-324 477l-131 -127v-350h-184z" />
<glyph unicode="l" horiz-adv-x="438" d="M127 0v1366h184v-1366h-184z" />
<glyph unicode="m" horiz-adv-x="1740" d="M125 952h176l6 -143q110 166 309 166q213 0 297 -172q145 172 347 172q180 0 270 -107t90 -297v-571h-184v557q0 258 -205 258q-113 0 -188.5 -84.5t-75.5 -202.5v-528h-185v557q0 258 -202 258q-73 0 -127 -32t-84 -87t-44 -118.5t-14 -135.5v-442h-184v745 q0 139 -2 207z" />
<glyph unicode="n" horiz-adv-x="1114" d="M125 952h176l6 -143q120 166 320 166q182 0 274 -106.5t92 -297.5v-571h-184v557q0 258 -219 258q-76 0 -132 -31.5t-87 -86.5t-45.5 -118.5t-14.5 -136.5v-442h-184v745q0 139 -2 207z" />
<glyph unicode="o" horiz-adv-x="1171" d="M82 477q0 137 64 252.5t180.5 184.5t259.5 69q214 0 359 -148.5t145 -357.5t-145 -357.5t-359 -148.5q-143 0 -259.5 69t-180.5 184.5t-64 252.5zM268 477q0 -88 37.5 -166t111.5 -129t169 -51q96 0 169.5 50.5t110.5 128.5t37 167q0 65 -22 126.5t-62 110.5t-101 79 t-132 30q-96 0 -170 -50.5t-111 -128.5t-37 -167z" />
<glyph unicode="p" horiz-adv-x="1142" d="M125 952h176l6 -135q124 156 324 156q107 0 191 -40.5t135 -111t77.5 -159.5t26.5 -191q0 -100 -29 -184t-77.5 -141t-112.5 -97.5t-132 -59t-137 -18.5q-60 0 -112.5 10.5t-79 20.5t-72.5 31v-443h-182v1155q0 139 -2 207zM309 207q93 -76 248 -76q140 0 227.5 96 t87.5 244q0 72 -15.5 131.5t-48 108t-88.5 75.5t-130 27q-99 0 -168 -54.5t-98 -158.5q-15 -46 -15 -149v-244z" />
<glyph unicode="q" horiz-adv-x="1122" d="M80 465q0 223 149 366.5t387 143.5q213 0 377 -66v-1319h-184v504q-10 -14 -30 -31.5t-54.5 -39.5t-86.5 -37t-110 -15q-143 0 -246 67.5t-152.5 177.5t-49.5 249zM268 467q0 -67 16 -125.5t48 -106.5t86.5 -76t124.5 -28q131 0 199.5 72t68.5 182v399q-91 29 -195 29 q-162 0 -255 -94.5t-93 -251.5z" />
<glyph unicode="r" horiz-adv-x="745" d="M125 952h176l6 -153q115 168 311 168q52 0 105 -17l-41 -172q-38 15 -94 15q-116 0 -196.5 -85t-80.5 -206v-502h-184v758q0 131 -2 194z" />
<glyph unicode="s" horiz-adv-x="966" d="M76 117l112 123q113 -113 289 -113q97 0 156 31t59 92q0 65 -54.5 96t-217.5 70q-303 68 -303 284q0 88 55.5 154t139 97.5t180.5 31.5q220 0 360 -121l-100 -127q-103 92 -258 92q-195 0 -195 -122q0 -30 17 -52.5t54.5 -39.5t78 -29t106.5 -27q74 -18 127 -39 t100.5 -54.5t72 -84t24.5 -117.5q0 -91 -57 -158.5t-146 -100t-195 -32.5q-268 0 -405 146z" />
<glyph unicode="t" horiz-adv-x="786" d="M37 799v153h172v312h184v-312h279v-153h-279v-469q0 -111 34 -156t103 -45q51 0 85.5 15.5t72.5 50.5l84 -113q-61 -58 -123 -83.5t-147 -25.5q-152 0 -222.5 82t-70.5 256v488h-172z" />
<glyph unicode="u" horiz-adv-x="1110" d="M121 381v571h184v-559q0 -132 54 -194t161 -62q61 0 109.5 21.5t79.5 56.5t51 84.5t28.5 101t8.5 109.5v442h184v-745q0 -139 2 -207h-176l-6 141q-120 -161 -318 -161q-182 0 -272 105t-90 296z" />
<glyph unicode="v" horiz-adv-x="1028" d="M12 952h211l297 -743l295 743h199l-408 -952h-184z" />
<glyph unicode="w" horiz-adv-x="1478" d="M23 952h202l213 -727l230 727h157l230 -733l209 733h190l-315 -952h-183l-221 666l-219 -666h-172z" />
<glyph unicode="x" horiz-adv-x="997" d="M16 0l369 492l-342 460h229l230 -315l225 315h205l-332 -446l379 -506h-231l-265 360l-260 -360h-207z" />
<glyph unicode="y" horiz-adv-x="1028" d="M18 952h211l308 -719l270 719h201l-381 -927q-10 -24 -26 -68.5t-28 -76.5t-31.5 -75.5t-37.5 -74.5t-45 -64t-55.5 -53.5t-67 -33.5t-82.5 -13q-125 0 -207 72l84 129q52 -48 113 -48q58 0 89.5 45t79.5 167q5 10 7 16l24 61z" />
<glyph unicode="z" horiz-adv-x="974" d="M106 0v145l545 652h-526v155h752v-147l-555 -651h561v-154h-777z" />
<glyph unicode="{" horiz-adv-x="591" d="M63 569v117q74 4 112.5 50t43.5 114l29 348q8 93 31 152t69 96h191q-40 -38 -68.5 -99t-32.5 -126l-30 -390q-6 -82 -46 -133t-104 -69q63 -18 103.5 -70t46.5 -135l30 -389q4 -65 32.5 -126t68.5 -99h-191q-46 37 -69 95.5t-31 151.5l-29 349q-5 68 -43.5 113.5 t-112.5 49.5z" />
<glyph unicode="|" horiz-adv-x="477" d="M154 -336v2042h170v-2042h-170z" />
<glyph unicode="}" horiz-adv-x="591" d="M53 -190q40 38 68.5 99t32.5 126l30 389q6 83 46.5 135t103.5 70q-64 18 -104 69t-46 133l-30 390q-4 65 -32.5 126t-68.5 99h191q46 -37 69 -96t31 -152l29 -348q5 -69 43.5 -114.5t111.5 -49.5v-117q-74 -4 -112 -49.5t-43 -113.5l-29 -349q-8 -93 -31 -151.5 t-69 -95.5h-191z" />
<glyph unicode="~" horiz-adv-x="978" d="M84 627q24 24 39 37t50 38.5t76 38.5t85 13q13 0 26.5 -1.5t23 -3.5t23 -7t20 -7t21.5 -10t19 -10t21 -11.5t20 -11.5q68 -35 121 -35q93 0 178 80l84 -119q-39 -46 -103 -85t-141 -39q-63 0 -129 34q-35 20 -57 30.5t-59 20t-76 9.5q-72 0 -156 -78q-15 20 -42.5 59 t-43.5 58z" />
<glyph unicode="&#xa1;" horiz-adv-x="528" d="M152 729v223h229v-223h-229zM164 -414l4 973h194l7 -973h-205z" />
<glyph unicode="&#xa2;" d="M147 643q0 193 116.5 333t303.5 169v184h125v-182q192 -11 324 -156l-121 -114q-80 96 -203 110v-686q139 15 215 113l113 -119q-131 -144 -328 -158v-176h-125v180q-194 24 -307 162.5t-113 339.5zM334 643q0 -110 64.5 -208.5t168.5 -125.5v668q-107 -28 -170 -122 t-63 -212z" />
<glyph unicode="&#xa3;" d="M111 588v155h149v166q0 51 8.5 101.5t36 110t71 103.5t120 73.5t176.5 29.5q185 0 325 -127q4 -4 11 -10l8 -8l-119 -131q-47 49 -96.5 76.5t-128.5 27.5q-60 0 -103 -22.5t-67 -63.5t-34.5 -90t-10.5 -109v-127h409v-155h-409v-412h592v-176h-789v588h-149z" />
<glyph unicode="&#xa4;" d="M76 324l133 135q-68 100 -68 225q0 122 68 225l-133 133l112 115l134 -133q107 76 235 76q129 0 236 -74l133 131l112 -115l-133 -133q70 -107 70 -225q0 -120 -70 -227l133 -133l-112 -115l-133 131q-104 -72 -236 -72q-135 0 -235 74l-134 -133zM297 684 q0 -107 76.5 -183.5t183.5 -76.5t184.5 76.5t77.5 183.5q0 106 -77.5 183t-184.5 77t-183.5 -77t-76.5 -183z" />
<glyph unicode="&#xa5;" d="M35 1292h217l311 -579l309 579h209l-354 -610h250v-125h-322l-4 -53v-123h326v-125h-326v-256h-184v256h-320v125h320v123l-4 53h-316v125h242z" />
<glyph unicode="&#xa6;" horiz-adv-x="477" d="M154 -336v776h170v-776h-170zM154 930v776h170v-776h-170z" />
<glyph unicode="&#xa7;" horiz-adv-x="948" d="M117 414l100 151l389 -252q230 -155 230 -362q0 -103 -45 -189.5t-135 -141t-210 -54.5q-43 0 -85.5 9t-69 17.5t-63 29t-44.5 26t-37 24.5l93 138q58 -42 105 -59t106 -17q96 0 149 60t53 136q0 73 -37.5 126.5t-111.5 101.5zM119 1014q0 76 27.5 146.5t76.5 124.5 t123.5 86t161.5 32q152 0 291 -107l-92 -139q-99 76 -203 76q-91 0 -147 -61.5t-56 -135.5t37.5 -126.5t112.5 -100.5l387 -256l-101 -152l-387 252q-231 153 -231 361z" />
<glyph unicode="&#xa8;" horiz-adv-x="712" d="M84 1147v186h192v-186h-192zM434 1147v186h191v-186h-191z" />
<glyph unicode="&#xa9;" horiz-adv-x="1656" d="M117 686q0 196 93.5 360t257.5 259.5t361 95.5q146 0 277.5 -56.5t226 -152t150 -228t55.5 -278.5q0 -197 -94 -361t-257.5 -259t-359.5 -95t-359.5 95t-257 259t-93.5 361zM268 684q0 -160 72 -291.5t200.5 -207.5t286.5 -76t286.5 76t200.5 207.5t72 291.5 q0 159 -72 291.5t-200 209.5t-285 77q-158 0 -287 -77t-201.5 -209.5t-72.5 -291.5zM451 686q0 165 110 276t277 111q100 0 180.5 -45t132.5 -121l-111 -80q-34 47 -85.5 78t-110.5 31q-105 0 -172.5 -72.5t-67.5 -179.5q0 -101 68.5 -174.5t171.5 -73.5q62 0 114 32.5 t84 80.5l109 -88q-52 -75 -133 -120.5t-180 -45.5q-171 0 -279 111t-108 280z" />
<glyph unicode="&#xaa;" horiz-adv-x="780" d="M94 868q0 103 76.5 159t212.5 56q76 0 139 -8v17q0 112 -149 112q-104 0 -185 -61l-71 98q101 86 264 86q129 0 203.5 -60.5t74.5 -168.5v-285q0 -67 3 -125h-134q0 11 -4 57q-35 -32 -90.5 -52.5t-105.5 -20.5q-97 0 -165.5 48t-68.5 148zM231 872q0 -84 123 -84 q65 0 117.5 37.5t52.5 89.5v50q-41 8 -133 8q-84 0 -122 -30t-38 -71z" />
<glyph unicode="&#xab;" horiz-adv-x="1028" d="M133 487l215 396h182l-206 -396l206 -395h-182zM496 487l215 396h182l-207 -396l207 -395h-182z" />
<glyph unicode="&#xac;" d="M150 580v159h817v-438h-162v279h-655z" />
<glyph unicode="&#xad;" horiz-adv-x="899" d="M154 485v177h600v-177h-600z" />
<glyph unicode="&#xae;" horiz-adv-x="1656" d="M117 686q0 196 93.5 360t257.5 259.5t361 95.5q146 0 277.5 -56.5t226 -152t150 -228t55.5 -278.5q0 -197 -94 -361t-257.5 -259t-359.5 -95t-359.5 95t-257 259t-93.5 361zM268 684q0 -160 72 -291.5t200.5 -207.5t286.5 -76t286.5 76t200.5 207.5t72 291.5 q0 159 -72 291.5t-200 209.5t-285 77q-158 0 -287 -77t-201.5 -209.5t-72.5 -291.5zM580 328v723h278q125 0 190.5 -65t65.5 -148q0 -71 -35.5 -127t-105.5 -84l176 -299h-156l-162 280h-114v-280h-137zM717 717h135q61 0 91 29.5t30 82.5q0 55 -31 81t-98 26h-127v-219z " />
<glyph unicode="&#xaf;" horiz-adv-x="714" d="M102 1157v148h512v-148h-512z" />
<glyph unicode="&#xb0;" horiz-adv-x="679" d="M59 1077q0 118 80.5 196.5t198.5 78.5q119 0 199.5 -78t80.5 -195q0 -118 -80 -196t-198 -78q-119 0 -200 78t-81 194zM193 1077q0 -63 42 -106t105 -43t105 42.5t42 108.5q0 62 -42 105t-107 43q-61 0 -103 -43.5t-42 -106.5z" />
<glyph unicode="&#xb1;" d="M150 0v160h817v-160h-817zM150 578v159h329v322h160v-322h328v-159h-326v-322h-162v322h-329z" />
<glyph unicode="&#xb2;" horiz-adv-x="737" d="M88 1214q50 47 124 79t159 32q127 0 192.5 -60.5t65.5 -152.5q0 -62 -31.5 -111.5t-79 -81.5t-96.5 -59t-91 -58.5t-55 -64.5h355v-131h-531v86q0 49 26.5 92.5t66.5 74t86.5 62t86.5 56.5t66.5 58t26.5 67q0 44 -31 66t-76 22q-100 0 -196 -84z" />
<glyph unicode="&#xb3;" horiz-adv-x="737" d="M70 662l73 112q74 -61 179 -61q65 0 104 28t39 80q0 109 -148 109q-53 0 -90 -12l-30 63l219 197h-291v127h467v-117l-180 -166q102 -10 155.5 -66.5t53.5 -144.5q0 -99 -81.5 -162t-215.5 -63q-147 0 -254 76z" />
<glyph unicode="&#xb4;" horiz-adv-x="821" d="M313 1106l111 278h201l-158 -278h-154z" />
<glyph unicode="&#xb5;" horiz-adv-x="1110" d="M123 -410v1362h184v-559q0 -126 57.5 -191t159.5 -65q125 0 201 90t76 213v512h182v-729q0 -151 2 -223h-174q-6 43 -6 135q-115 -155 -299 -155q-63 0 -108 14.5t-91 52.5v-457h-184z" />
<glyph unicode="&#xb6;" horiz-adv-x="1097" d="M92 995q0 84 27 148.5t73 106t112.5 68t139 37.5t158.5 11v-741q-86 0 -158.5 10.5t-139 37t-112.5 68t-73 106t-27 148.5zM416 -250v776q39 -14 131 -14h55v-762h-186zM748 -250v1616h188v-1616h-188z" />
<glyph unicode="&#xb7;" horiz-adv-x="518" d="M145 547v229h232v-229h-232z" />
<glyph unicode="&#xb8;" horiz-adv-x="1150" d="M168 -406l22 111q85 -29 148 -29q65 0 99 21.5t34 58.5q0 32 -29.5 52t-89.5 20q-62 0 -141 -27l18 113q83 27 172 27q104 0 162 -51.5t58 -127.5q0 -94 -73.5 -146t-182.5 -52q-127 0 -197 30z" />
<glyph unicode="&#xb9;" horiz-adv-x="737" d="M127 1167l258 138h137v-699h-157v535l-181 -90z" />
<glyph unicode="&#xba;" horiz-adv-x="837" d="M86 999q0 142 93.5 235t240.5 93q145 0 238.5 -93t93.5 -235t-93 -234.5t-239 -92.5q-147 0 -240.5 92.5t-93.5 234.5zM236 999q0 -81 47.5 -138.5t136.5 -57.5q87 0 134.5 57.5t47.5 138.5q0 79 -47.5 138t-134.5 59q-88 0 -136 -59t-48 -138z" />
<glyph unicode="&#xbb;" horiz-adv-x="1028" d="M143 92l207 395l-207 396h183l215 -396l-215 -395h-183zM506 92l207 395l-207 396h182l215 -396l-215 -395h-182z" />
<glyph unicode="&#xbc;" horiz-adv-x="1826" d="M137 1167l258 138h137v-699h-157v535l-180 -90zM406 0l829 1290h174l-829 -1290h-174zM1069 137v117l367 446h155v-444h86v-119h-86v-133h-141v133h-381zM1204 256h246v295z" />
<glyph unicode="&#xbd;" horiz-adv-x="1826" d="M123 1167l258 138h137v-699h-158v535l-180 -90zM356 0l830 1290h174l-830 -1290h-174zM1145 610q50 47 123.5 79t158.5 32q127 0 193 -60.5t66 -152.5q0 -62 -31.5 -111.5t-79 -81.5t-96.5 -59t-91 -58.5t-55 -64.5h355v-131h-531v86q0 49 26.5 92.5t66.5 74t86.5 62 t86.5 56.5t66.5 58t26.5 67q0 44 -31 66t-76 22q-51 0 -104 -24.5t-93 -59.5z" />
<glyph unicode="&#xbe;" horiz-adv-x="1826" d="M121 662l74 112q74 -61 178 -61q65 0 104 28t39 80q0 109 -147 109q-53 0 -90 -12l-31 63l219 197h-291v127h467v-117l-180 -166q102 -10 155.5 -66.5t53.5 -144.5q0 -99 -81.5 -162t-215.5 -63q-147 0 -254 76zM444 0l830 1290h174l-830 -1290h-174zM1102 137v117 l366 446h156v-444h86v-119h-86v-133h-141v133h-381zM1237 256h246v295z" />
<glyph unicode="&#xbf;" horiz-adv-x="1036" d="M139 -104q0 110 49.5 182.5t159.5 154.5q44 33 61.5 47t46 42t39.5 50t20 56.5t9 75.5v55h185v-57q0 -113 -46.5 -201t-148.5 -162q-44 -31 -68.5 -50.5t-56.5 -51.5t-46.5 -66.5t-14.5 -74.5q0 -78 63.5 -126.5t167.5 -48.5q175 0 307 142l123 -113q-22 -29 -54 -58.5 t-84.5 -63.5t-129 -55.5t-162.5 -21.5q-194 0 -307 99.5t-113 245.5zM502 727v225h227v-225h-227z" />
<glyph unicode="&#xc0;" horiz-adv-x="1312" d="M20 0l535 1366h201l534 -1366h-219l-141 381h-561l-142 -381h-207zM401 1782h230l151 -307h-166zM426 547h444l-221 600z" />
<glyph unicode="&#xc1;" horiz-adv-x="1312" d="M20 0l535 1366h201l534 -1366h-219l-141 381h-561l-142 -381h-207zM426 547h444l-221 600zM553 1475l149 307h234l-217 -307h-166z" />
<glyph unicode="&#xc2;" horiz-adv-x="1312" d="M20 0l535 1366h201l534 -1366h-219l-141 381h-561l-142 -381h-207zM330 1475l231 307h180q73 -95 228 -307h-170q-25 31 -75 93.5t-75 94.5l-147 -188h-172zM426 547h444l-221 600z" />
<glyph unicode="&#xc3;" horiz-adv-x="1312" d="M20 0l535 1366h201l534 -1366h-219l-141 381h-561l-142 -381h-207zM268 1634q45 49 108 83t134 34q43 0 81 -14t62.5 -31t59.5 -31t71 -14q37 0 71 12t53.5 25.5t49.5 38.5q9 -13 39 -54.5t45 -64.5q-110 -119 -239 -119q-41 0 -79.5 14.5t-64 32.5t-61.5 32.5t-72 14.5 q-54 0 -93 -19t-83 -56zM426 547h444l-221 600z" />
<glyph unicode="&#xc4;" horiz-adv-x="1312" d="M20 0l535 1366h201l534 -1366h-219l-141 381h-561l-142 -381h-207zM352 1528v201h207v-201h-207zM426 547h444l-221 600zM752 1528v201h206v-201h-206z" />
<glyph unicode="&#xc5;" horiz-adv-x="1312" d="M20 0l515 1317q-58 30 -91.5 86t-33.5 127q0 105 71 174.5t176 69.5t176.5 -68.5t71.5 -171.5q0 -74 -35 -131.5t-96 -87.5l516 -1315h-219l-141 381h-561l-142 -381h-207zM426 547h444l-221 600zM543 1530q0 -52 31.5 -85.5t84.5 -33.5q51 0 83 34.5t32 88.5 q0 52 -32 84.5t-85 32.5q-51 0 -82.5 -33.5t-31.5 -87.5z" />
<glyph unicode="&#xc6;" horiz-adv-x="1949" d="M6 0l836 1366h968v-176h-665v-397h504v-177h-504v-440h715v-176h-910v367h-514l-223 -367h-207zM535 530h415v680z" />
<glyph unicode="&#xc7;" horiz-adv-x="1386" d="M98 678q0 199 85.5 363t243.5 261t357 97q103 0 193 -25.5t154 -68.5t108 -86t76 -91l-139 -118q-30 41 -60.5 73t-78 67t-111.5 54t-140 19q-146 0 -257 -74t-167.5 -196t-56.5 -271q0 -148 57.5 -268.5t167 -191t250.5 -70.5q51 0 96 7.5t82 23.5t64.5 30t55 38.5 t40.5 36.5t35 37.5t25 28.5l137 -114q-19 -32 -50.5 -66.5t-82 -72t-108.5 -67t-135.5 -48.5t-158.5 -19q-197 0 -353.5 92t-242.5 254t-86 365zM526 -428q20 97 23 117q85 -29 151 -29q129 0 129 78q0 63 -114 63q-75 0 -146 -24q12 59 21 117q91 26 176 26 q106 0 165.5 -51t59.5 -127q0 -94 -76.5 -147.5t-185.5 -53.5q-131 0 -203 31z" />
<glyph unicode="&#xc8;" horiz-adv-x="1155" d="M156 0v1366h860v-174h-664v-397h500v-177h-500v-442h713v-176h-909zM352 1782h230l151 -307h-166z" />
<glyph unicode="&#xc9;" horiz-adv-x="1155" d="M156 0v1366h860v-174h-664v-397h500v-177h-500v-442h713v-176h-909zM487 1475l150 307h233l-217 -307h-166z" />
<glyph unicode="&#xca;" horiz-adv-x="1155" d="M156 0v1366h860v-174h-664v-397h500v-177h-500v-442h713v-176h-909zM264 1475l232 307h180q53 -69 227 -307h-170q-26 32 -75 94t-74 94l-148 -188h-172z" />
<glyph unicode="&#xcb;" horiz-adv-x="1155" d="M156 0v1366h860v-174h-664v-397h500v-177h-500v-442h713v-176h-909zM281 1528v201h206v-201h-206zM680 1528v201h207v-201h-207z" />
<glyph unicode="&#xcc;" horiz-adv-x="507" d="M-20 1782h229l151 -307h-165zM156 0v1366h196v-1366h-196z" />
<glyph unicode="&#xcd;" horiz-adv-x="507" d="M152 1475l149 307h234l-218 -307h-165zM156 0v1366h196v-1366h-196z" />
<glyph unicode="&#xce;" horiz-adv-x="507" d="M-63 1475l231 307h180q53 -69 227 -307h-169q-25 31 -75 93.5t-75 94.5l-147 -188h-172zM156 0v1366h196v-1366h-196z" />
<glyph unicode="&#xcf;" horiz-adv-x="507" d="M-47 1528v201h207v-201h-207zM156 0v1366h196v-1366h-196zM352 1528v201h207v-201h-207z" />
<glyph unicode="&#xd0;" horiz-adv-x="1474" d="M20 616v162h148v588h457q165 0 299 -41t233 -123t153 -215t54 -307q0 -169 -54.5 -300t-154 -213.5t-234 -124.5t-298.5 -42h-455v616h-148zM365 176h256q260 0 400 127t140 375q0 250 -137.5 382t-409.5 132h-249v-414h344v-162h-344v-440z" />
<glyph unicode="&#xd1;" horiz-adv-x="1447" d="M156 0v1366h198l746 -1067v1067h192v-1366h-196l-748 1069v-1069h-192zM309 1634q45 49 108 83t134 34q43 0 81 -14t62.5 -31t59.5 -31t71 -14q37 0 71 12t53.5 25.5t49.5 38.5q9 -13 39 -54.5t45 -64.5q-110 -119 -239 -119q-41 0 -79.5 14.5t-64 32.5t-61.5 32.5 t-72 14.5q-54 0 -93 -19t-83 -56z" />
<glyph unicode="&#xd2;" horiz-adv-x="1595" d="M100 684q0 196 91 360.5t251.5 260.5t354.5 96t354.5 -96t252 -260.5t91.5 -360.5q0 -197 -91.5 -362t-252 -261t-354.5 -96q-193 0 -353.5 96t-252 261t-91.5 362zM305 686q0 -145 59.5 -266.5t173.5 -195.5t259 -74q146 0 260 74t173.5 195.5t59.5 266.5 q0 148 -59.5 269.5t-173 194.5t-260.5 73q-146 0 -259.5 -73t-173 -194.5t-59.5 -269.5zM547 1782h229l152 -307h-166z" />
<glyph unicode="&#xd3;" horiz-adv-x="1595" d="M100 684q0 196 91 360.5t251.5 260.5t354.5 96t354.5 -96t252 -260.5t91.5 -360.5q0 -197 -91.5 -362t-252 -261t-354.5 -96q-193 0 -353.5 96t-252 261t-91.5 362zM305 686q0 -145 59.5 -266.5t173.5 -195.5t259 -74q146 0 260 74t173.5 195.5t59.5 266.5 q0 148 -59.5 269.5t-173 194.5t-260.5 73q-146 0 -259.5 -73t-173 -194.5t-59.5 -269.5zM696 1475l150 307h233l-217 -307h-166z" />
<glyph unicode="&#xd4;" horiz-adv-x="1595" d="M100 684q0 196 91 360.5t251.5 260.5t354.5 96t354.5 -96t252 -260.5t91.5 -360.5q0 -197 -91.5 -362t-252 -261t-354.5 -96q-193 0 -353.5 96t-252 261t-91.5 362zM305 686q0 -145 59.5 -266.5t173.5 -195.5t259 -74q146 0 260 74t173.5 195.5t59.5 266.5 q0 148 -59.5 269.5t-173 194.5t-260.5 73q-146 0 -259.5 -73t-173 -194.5t-59.5 -269.5zM473 1475l232 307h180q53 -69 227 -307h-170q-26 32 -74.5 94.5t-74.5 93.5l-148 -188h-172z" />
<glyph unicode="&#xd5;" horiz-adv-x="1595" d="M100 684q0 196 91 360.5t251.5 260.5t354.5 96t354.5 -96t252 -260.5t91.5 -360.5q0 -197 -91.5 -362t-252 -261t-354.5 -96q-193 0 -353.5 96t-252 261t-91.5 362zM305 686q0 -145 59.5 -266.5t173.5 -195.5t259 -74q146 0 260 74t173.5 195.5t59.5 266.5 q0 148 -59.5 269.5t-173 194.5t-260.5 73q-146 0 -259.5 -73t-173 -194.5t-59.5 -269.5zM412 1634q45 49 107.5 83t133.5 34q53 0 99 -22.5t88.5 -45t87.5 -22.5q37 0 71 12t53.5 25.5t49.5 38.5q9 -13 39 -54.5t45 -64.5q-110 -119 -240 -119q-52 0 -98 23.5t-89.5 47 t-88.5 23.5q-54 0 -93 -19t-83 -56z" />
<glyph unicode="&#xd6;" horiz-adv-x="1595" d="M100 684q0 196 91 360.5t251.5 260.5t354.5 96t354.5 -96t252 -260.5t91.5 -360.5q0 -197 -91.5 -362t-252 -261t-354.5 -96q-193 0 -353.5 96t-252 261t-91.5 362zM305 686q0 -145 59.5 -266.5t173.5 -195.5t259 -74q146 0 260 74t173.5 195.5t59.5 266.5 q0 148 -59.5 269.5t-173 194.5t-260.5 73q-146 0 -259.5 -73t-173 -194.5t-59.5 -269.5zM494 1528v201h206v-201h-206zM893 1528v201h207v-201h-207z" />
<glyph unicode="&#xd7;" d="M197 408l249 247l-245 248l110 113l248 -248l248 250l111 -113l-248 -248l245 -245l-112 -113l-244 248l-250 -250z" />
<glyph unicode="&#xd8;" horiz-adv-x="1595" d="M100 682q0 147 54 280t146 229.5t222 153t275 56.5q180 0 327 -84l121 170l139 -88l-122 -176q111 -99 172 -240t61 -301q0 -197 -91.5 -361.5t-252 -260t-354.5 -95.5q-183 0 -351 92l-127 -178l-139 88l135 191q-103 99 -159 234.5t-56 289.5zM305 686q0 -216 123 -364 l592 845q-101 56 -223 56q-146 0 -259.5 -73.5t-173 -195t-59.5 -268.5zM555 213q109 -66 242 -66q146 0 260 74t173.5 196t59.5 269q0 110 -36.5 208.5t-102.5 170.5z" />
<glyph unicode="&#xd9;" horiz-adv-x="1378" d="M145 520v846h197v-799q0 -98 17 -170.5t55.5 -129.5t107.5 -86t168 -29q98 0 166.5 29t107 86t55.5 129.5t17 170.5v799h197v-846q0 -119 -33.5 -218.5t-98.5 -175.5t-170 -118.5t-241 -42.5q-109 0 -199 28t-153.5 78t-107 119.5t-64.5 152.5t-21 177zM453 1782h229 l152 -307h-166z" />
<glyph unicode="&#xda;" horiz-adv-x="1378" d="M145 520v846h197v-799q0 -98 17 -170.5t55.5 -129.5t107.5 -86t168 -29q98 0 166.5 29t107 86t55.5 129.5t17 170.5v799h197v-846q0 -119 -33.5 -218.5t-98.5 -175.5t-170 -118.5t-241 -42.5q-109 0 -199 28t-153.5 78t-107 119.5t-64.5 152.5t-21 177zM575 1475l150 307 h233l-217 -307h-166z" />
<glyph unicode="&#xdb;" horiz-adv-x="1378" d="M145 520v846h197v-799q0 -98 17 -170.5t55.5 -129.5t107.5 -86t168 -29q98 0 166.5 29t107 86t55.5 129.5t17 170.5v799h197v-846q0 -119 -33.5 -218.5t-98.5 -175.5t-170 -118.5t-241 -42.5q-109 0 -199 28t-153.5 78t-107 119.5t-64.5 152.5t-21 177zM369 1475l231 307 h180q73 -95 228 -307h-170q-25 31 -75 93.5t-75 94.5l-147 -188h-172z" />
<glyph unicode="&#xdc;" horiz-adv-x="1378" d="M145 520v846h197v-799q0 -98 17 -170.5t55.5 -129.5t107.5 -86t168 -29q98 0 166.5 29t107 86t55.5 129.5t17 170.5v799h197v-846q0 -119 -33.5 -218.5t-98.5 -175.5t-170 -118.5t-241 -42.5q-109 0 -199 28t-153.5 78t-107 119.5t-64.5 152.5t-21 177zM385 1528v201h207 v-201h-207zM784 1528v201h207v-201h-207z" />
<glyph unicode="&#xdd;" horiz-adv-x="1181" d="M18 1366h220l356 -584l356 584h211l-473 -756v-610h-199v610zM502 1475l149 307h234l-217 -307h-166z" />
<glyph unicode="&#xde;" horiz-adv-x="1159" d="M156 0v1366h188v-250h242q108 0 192.5 -25.5t136.5 -66t86 -96t47 -110t13 -113.5q0 -200 -128 -309t-337 -109h-252v-287h-188zM344 455h250q126 0 195 64.5t69 178.5q0 117 -70.5 183.5t-193.5 66.5h-250v-493z" />
<glyph unicode="&#xdf;" horiz-adv-x="1200" d="M127 0v973q0 118 31.5 202t91.5 132t136 70t175 22q154 0 256.5 -81.5t102.5 -207.5q0 -61 -25 -114.5t-60.5 -92t-71 -73t-60.5 -71.5t-25 -73q0 -46 40.5 -73t121.5 -48q65 -18 109.5 -38t85 -54t61 -86t20.5 -123q0 -133 -94 -212t-264 -79q-196 0 -326 105l109 133 q94 -82 211 -82q90 0 136 34t46 91q0 62 -36.5 98t-135.5 68q-48 14 -78 24.5t-69.5 32t-62 47t-38.5 66.5t-16 94t24 101.5t58.5 85.5t68.5 70.5t58 70t24 71.5q0 68 -46.5 112t-139.5 44q-236 0 -236 -276v-963h-182z" />
<glyph unicode="&#xe0;" horiz-adv-x="1021" d="M72 270q0 156 109 247t308 91q145 0 232 -14v35q0 198 -240 198q-67 0 -124.5 -15.5t-87 -32t-66.5 -42.5l-86 125q141 119 385 119q186 0 290.5 -89.5t104.5 -252.5v-451q0 -141 2 -188h-172l-4 115q-52 -70 -138 -106t-182 -36q-49 0 -94.5 9.5t-89 32t-76 56t-52 85 t-19.5 114.5zM252 276q0 -77 53 -117t148 -40q105 0 186.5 67.5t81.5 155.5v109q-19 5 -89 10.5t-130 5.5q-59 0 -104.5 -12t-72.5 -31t-44 -45.5t-23 -51t-6 -51.5zM301 1386h205l109 -278h-154z" />
<glyph unicode="&#xe1;" horiz-adv-x="1021" d="M72 270q0 156 109 247t308 91q145 0 232 -14v35q0 198 -240 198q-67 0 -124.5 -15.5t-87 -32t-66.5 -42.5l-86 125q141 119 385 119q186 0 290.5 -89.5t104.5 -252.5v-451q0 -141 2 -188h-172l-4 115q-52 -70 -138 -106t-182 -36q-49 0 -94.5 9.5t-89 32t-76 56t-52 85 t-19.5 114.5zM252 276q0 -77 53 -117t148 -40q105 0 186.5 67.5t81.5 155.5v109q-19 5 -89 10.5t-130 5.5q-59 0 -104.5 -12t-72.5 -31t-44 -45.5t-23 -51t-6 -51.5zM414 1106l110 278h201l-158 -278h-153z" />
<glyph unicode="&#xe2;" horiz-adv-x="1021" d="M72 270q0 156 109 247t308 91q145 0 232 -14v35q0 198 -240 198q-67 0 -124.5 -15.5t-87 -32t-66.5 -42.5l-86 125q141 119 385 119q186 0 290.5 -89.5t104.5 -252.5v-451q0 -141 2 -188h-172l-4 115q-52 -70 -138 -106t-182 -36q-49 0 -94.5 9.5t-89 32t-76 56t-52 85 t-19.5 114.5zM207 1104l203 280h174l203 -280h-168l-123 170l-121 -170h-168zM252 276q0 -77 53 -117t148 -40q105 0 186.5 67.5t81.5 155.5v109q-19 5 -89 10.5t-130 5.5q-59 0 -104.5 -12t-72.5 -31t-44 -45.5t-23 -51t-6 -51.5z" />
<glyph unicode="&#xe3;" horiz-adv-x="1021" d="M72 270q0 156 109 247t308 91q145 0 232 -14v35q0 198 -240 198q-67 0 -124.5 -15.5t-87 -32t-66.5 -42.5l-86 125q141 119 385 119q186 0 290.5 -89.5t104.5 -252.5v-451q0 -141 2 -188h-172l-4 115q-52 -70 -138 -106t-182 -36q-49 0 -94.5 9.5t-89 32t-76 56t-52 85 t-19.5 114.5zM133 1241q41 45 102 78t127 33q49 0 92 -22l86 -44t91 -22q38 3 68 14.5t46 22.5t46 36l73 -110q-42 -46 -102 -79.5t-125 -33.5q-49 0 -93 22.5t-85.5 45t-83.5 22.5q-88 0 -166 -71zM252 276q0 -77 53 -117t148 -40q105 0 186.5 67.5t81.5 155.5v109 q-19 5 -89 10.5t-130 5.5q-59 0 -104.5 -12t-72.5 -31t-44 -45.5t-23 -51t-6 -51.5z" />
<glyph unicode="&#xe4;" horiz-adv-x="1021" d="M72 270q0 156 109 247t308 91q145 0 232 -14v35q0 198 -240 198q-67 0 -124.5 -15.5t-87 -32t-66.5 -42.5l-86 125q141 119 385 119q186 0 290.5 -89.5t104.5 -252.5v-451q0 -141 2 -188h-172l-4 115q-52 -70 -138 -106t-182 -36q-49 0 -94.5 9.5t-89 32t-76 56t-52 85 t-19.5 114.5zM246 1147v186h192v-186h-192zM252 276q0 -77 53 -117t148 -40q105 0 186.5 67.5t81.5 155.5v109q-19 5 -89 10.5t-130 5.5q-59 0 -104.5 -12t-72.5 -31t-44 -45.5t-23 -51t-6 -51.5zM596 1147v186h191v-186h-191z" />
<glyph unicode="&#xe5;" horiz-adv-x="1021" d="M72 270q0 156 109 247t308 91q145 0 232 -14v35q0 198 -240 198q-67 0 -124.5 -15.5t-87 -32t-66.5 -42.5l-86 125q141 119 385 119q186 0 290.5 -89.5t104.5 -252.5v-451q0 -141 2 -188h-172l-4 115q-52 -70 -138 -106t-182 -36q-49 0 -94.5 9.5t-89 32t-76 56t-52 85 t-19.5 114.5zM252 276q0 -77 53 -117t148 -40q105 0 186.5 67.5t81.5 155.5v109q-19 5 -89 10.5t-130 5.5q-59 0 -104.5 -12t-72.5 -31t-44 -45.5t-23 -51t-6 -51.5zM287 1313q0 93 65.5 156t159.5 63q95 0 160 -62t65 -155q0 -94 -65 -156.5t-158 -62.5q-94 0 -160.5 62.5 t-66.5 154.5zM410 1313q0 -44 29.5 -75.5t72.5 -31.5t73.5 31.5t30.5 75.5t-30.5 74t-73.5 30t-72.5 -30t-29.5 -74z" />
<glyph unicode="&#xe6;" horiz-adv-x="1726" d="M72 268q0 154 108 236t309 82q47 0 133 -6.5t99 -6.5v56q0 198 -232 198q-70 0 -129 -15.5t-90 -32t-67 -42.5l-86 125q45 32 85 54t119.5 43.5t170.5 21.5q257 0 348 -162q58 76 147.5 119t196.5 43q96 0 174 -30t131.5 -82t90 -123.5t53 -152t16.5 -169.5h-750 q0 -124 92.5 -209.5t216.5 -85.5q109 0 188.5 36.5t123.5 84.5l104 -111q-21 -24 -51 -48t-81.5 -53.5t-126 -48t-159.5 -18.5q-257 0 -395 193q-80 -106 -170.5 -148.5t-222.5 -42.5q-66 0 -125.5 16t-110 49t-80.5 92t-30 138zM248 274q0 -76 54.5 -115.5t150.5 -39.5 q113 0 190.5 66.5t77.5 156.5v88q-110 14 -219 14q-133 0 -193.5 -49.5t-60.5 -120.5zM897 561h561q-8 116 -79.5 190t-194.5 74q-125 0 -203.5 -78.5t-83.5 -185.5z" />
<glyph unicode="&#xe7;" horiz-adv-x="1009" d="M82 477q0 104 37.5 197t102.5 161t158.5 108t201.5 40q226 0 370 -160l-121 -116q-90 114 -249 114q-95 0 -168 -48.5t-109.5 -126t-36.5 -169.5q0 -90 36.5 -167.5t109.5 -127t168 -49.5q167 0 260 117l112 -119q-140 -160 -372 -160q-228 0 -364 141t-136 365z M326 -429l22 111q85 -29 148 -29q65 0 99 21.5t34 58.5q0 32 -29.5 52t-89.5 20q-62 0 -141 -27l18 113q83 27 172 27q104 0 162 -51.5t58 -127.5q0 -94 -73.5 -146t-182.5 -52q-127 0 -197 30z" />
<glyph unicode="&#xe8;" horiz-adv-x="1097" d="M80 483q0 139 60 252.5t169 179.5t246 66q119 0 210.5 -46.5t145.5 -126t81.5 -177.5t27.5 -209h-752q3 -82 46.5 -149.5t114 -105.5t151.5 -38q109 0 188 36.5t123 84.5l104 -111q-21 -24 -51 -48t-81 -53.5t-125.5 -48t-159.5 -18.5q-223 0 -360.5 141.5t-137.5 370.5z M268 559h561q-8 116 -79.5 191t-194.5 75q-125 0 -203.5 -79t-83.5 -187zM352 1386h205l109 -278h-154z" />
<glyph unicode="&#xe9;" horiz-adv-x="1097" d="M80 483q0 139 60 252.5t169 179.5t246 66q119 0 210.5 -46.5t145.5 -126t81.5 -177.5t27.5 -209h-752q3 -82 46.5 -149.5t114 -105.5t151.5 -38q109 0 188 36.5t123 84.5l104 -111q-21 -24 -51 -48t-81 -53.5t-125.5 -48t-159.5 -18.5q-223 0 -360.5 141.5t-137.5 370.5z M268 559h561q-8 116 -79.5 191t-194.5 75q-125 0 -203.5 -79t-83.5 -187zM473 1106l111 278h200l-157 -278h-154z" />
<glyph unicode="&#xea;" horiz-adv-x="1097" d="M80 483q0 139 60 252.5t169 179.5t246 66q119 0 210.5 -46.5t145.5 -126t81.5 -177.5t27.5 -209h-752q3 -82 46.5 -149.5t114 -105.5t151.5 -38q109 0 188 36.5t123 84.5l104 -111q-21 -24 -51 -48t-81 -53.5t-125.5 -48t-159.5 -18.5q-223 0 -360.5 141.5t-137.5 370.5z M260 1104l203 280h174l203 -280h-168l-123 170l-121 -170h-168zM268 559h561q-8 116 -79.5 191t-194.5 75q-125 0 -203.5 -79t-83.5 -187z" />
<glyph unicode="&#xeb;" horiz-adv-x="1097" d="M80 483q0 139 60 252.5t169 179.5t246 66q119 0 210.5 -46.5t145.5 -126t81.5 -177.5t27.5 -209h-752q3 -82 46.5 -149.5t114 -105.5t151.5 -38q109 0 188 36.5t123 84.5l104 -111q-21 -24 -51 -48t-81 -53.5t-125.5 -48t-159.5 -18.5q-223 0 -360.5 141.5t-137.5 370.5z M268 559h561q-8 116 -79.5 191t-194.5 75q-125 0 -203.5 -79t-83.5 -187zM279 1147v186h192v-186h-192zM629 1147v186h190v-186h-190z" />
<glyph unicode="&#xec;" horiz-adv-x="454" d="M-2 1386h205l108 -278h-153zM135 0v952h184v-952h-184z" />
<glyph unicode="&#xed;" horiz-adv-x="454" d="M135 0v952h184v-952h-184zM145 1106l111 278h201l-158 -278h-154z" />
<glyph unicode="&#xee;" horiz-adv-x="454" d="M-61 1104l202 280h174l203 -280h-168l-123 170l-121 -170h-167zM135 0v952h184v-952h-184z" />
<glyph unicode="&#xef;" horiz-adv-x="454" d="M-41 1147v186h193v-186h-193zM135 0v952h184v-952h-184zM309 1147v186h191v-186h-191z" />
<glyph unicode="&#xf0;" horiz-adv-x="1142" d="M82 449q0 127 60.5 235.5t172 175t250.5 66.5q147 0 264 -62q-70 199 -260 301l-108 -149l-105 65l95 131q-70 22 -185 33l21 144q145 -9 256 -48l98 138l104 -66l-86 -119q200 -101 301 -292.5t101 -448.5q0 -146 -40 -260t-110 -184t-160 -106t-196 -36 q-94 0 -178.5 31.5t-150.5 90t-105 152t-39 208.5zM270 446q0 -139 83.5 -227t209.5 -88q61 0 115.5 24.5t99.5 72.5t72 131t27 190q0 81 -15 133q-125 84 -268 84q-141 0 -232.5 -88.5t-91.5 -231.5z" />
<glyph unicode="&#xf1;" horiz-adv-x="1114" d="M125 952h176l6 -143q120 166 320 166q182 0 274 -106.5t92 -297.5v-571h-184v557q0 258 -219 258q-76 0 -132 -31.5t-87 -86.5t-45.5 -118.5t-14.5 -136.5v-442h-184v745q0 139 -2 207zM192 1241q41 45 102.5 78t127.5 33q49 0 92 -22t85.5 -44t90.5 -22q38 3 68 14.5 t46 22.5t46 36l74 -110q-42 -46 -102 -79.5t-126 -33.5q-49 0 -93 22.5t-85.5 45t-83.5 22.5q-88 0 -166 -71z" />
<glyph unicode="&#xf2;" horiz-adv-x="1171" d="M82 477q0 137 64 252.5t180.5 184.5t259.5 69q214 0 359 -148.5t145 -357.5t-145 -357.5t-359 -148.5q-143 0 -259.5 69t-180.5 184.5t-64 252.5zM268 477q0 -88 37.5 -166t111.5 -129t169 -51q96 0 169.5 50.5t110.5 128.5t37 167q0 65 -22 126.5t-62 110.5t-101 79 t-132 30q-96 0 -170 -50.5t-111 -128.5t-37 -167zM378 1386h205l109 -278h-154z" />
<glyph unicode="&#xf3;" horiz-adv-x="1171" d="M82 477q0 137 64 252.5t180.5 184.5t259.5 69q214 0 359 -148.5t145 -357.5t-145 -357.5t-359 -148.5q-143 0 -259.5 69t-180.5 184.5t-64 252.5zM268 477q0 -88 37.5 -166t111.5 -129t169 -51q96 0 169.5 50.5t110.5 128.5t37 167q0 65 -22 126.5t-62 110.5t-101 79 t-132 30q-96 0 -170 -50.5t-111 -128.5t-37 -167zM498 1106l110 278h201l-158 -278h-153z" />
<glyph unicode="&#xf4;" horiz-adv-x="1171" d="M82 477q0 137 64 252.5t180.5 184.5t259.5 69q214 0 359 -148.5t145 -357.5t-145 -357.5t-359 -148.5q-143 0 -259.5 69t-180.5 184.5t-64 252.5zM268 477q0 -88 37.5 -166t111.5 -129t169 -51q96 0 169.5 50.5t110.5 128.5t37 167q0 65 -22 126.5t-62 110.5t-101 79 t-132 30q-96 0 -170 -50.5t-111 -128.5t-37 -167zM293 1104l203 280h174l203 -280h-168l-123 170l-121 -170h-168z" />
<glyph unicode="&#xf5;" horiz-adv-x="1171" d="M82 477q0 137 64 252.5t180.5 184.5t259.5 69q214 0 359 -148.5t145 -357.5t-145 -357.5t-359 -148.5q-143 0 -259.5 69t-180.5 184.5t-64 252.5zM221 1241q41 45 102.5 78t127.5 33q49 0 92 -22t85.5 -44t90.5 -22q38 3 68 14.5t46 22.5t46 36l73 -110 q-42 -46 -102 -79.5t-125 -33.5q-49 0 -93 22.5t-85.5 45t-83.5 22.5q-88 0 -166 -71zM268 477q0 -88 37.5 -166t111.5 -129t169 -51q96 0 169.5 50.5t110.5 128.5t37 167q0 65 -22 126.5t-62 110.5t-101 79t-132 30q-96 0 -170 -50.5t-111 -128.5t-37 -167z" />
<glyph unicode="&#xf6;" horiz-adv-x="1171" d="M82 477q0 137 64 252.5t180.5 184.5t259.5 69q214 0 359 -148.5t145 -357.5t-145 -357.5t-359 -148.5q-143 0 -259.5 69t-180.5 184.5t-64 252.5zM268 477q0 -88 37.5 -166t111.5 -129t169 -51q96 0 169.5 50.5t110.5 128.5t37 167q0 65 -22 126.5t-62 110.5t-101 79 t-132 30q-96 0 -170 -50.5t-111 -128.5t-37 -167zM315 1147v186h192v-186h-192zM665 1147v186h191v-186h-191z" />
<glyph unicode="&#xf7;" horiz-adv-x="1114" d="M147 578v159h818v-159h-818zM465 254v174h182v-174h-182zM465 889v172h182v-172h-182z" />
<glyph unicode="&#xf8;" horiz-adv-x="1171" d="M80 477q0 102 38 195t104.5 161t161 108t202.5 40q122 0 229 -55l100 141l117 -72l-102 -147q160 -157 160 -371q0 -138 -65 -254t-181 -184t-258 -68q-118 0 -232 52l-94 -132l-115 72l97 137q-162 150 -162 377zM266 477q0 -128 80 -227l373 538q-59 33 -133 33 q-96 0 -170.5 -50.5t-112 -128t-37.5 -165.5zM451 162q59 -33 135 -33q142 0 229.5 104.5t87.5 243.5q0 121 -78 221z" />
<glyph unicode="&#xf9;" horiz-adv-x="1110" d="M121 381v571h184v-559q0 -132 54 -194t161 -62q61 0 109.5 21.5t79.5 56.5t51 84.5t28.5 101t8.5 109.5v442h184v-745q0 -139 2 -207h-176l-6 141q-120 -161 -318 -161q-182 0 -272 105t-90 296zM342 1386h205l109 -278h-154z" />
<glyph unicode="&#xfa;" horiz-adv-x="1110" d="M121 381v571h184v-559q0 -132 54 -194t161 -62q61 0 109.5 21.5t79.5 56.5t51 84.5t28.5 101t8.5 109.5v442h184v-745q0 -139 2 -207h-176l-6 141q-120 -161 -318 -161q-182 0 -272 105t-90 296zM461 1106l110 278h201l-158 -278h-153z" />
<glyph unicode="&#xfb;" horiz-adv-x="1110" d="M121 381v571h184v-559q0 -132 54 -194t161 -62q61 0 109.5 21.5t79.5 56.5t51 84.5t28.5 101t8.5 109.5v442h184v-745q0 -139 2 -207h-176l-6 141q-120 -161 -318 -161q-182 0 -272 105t-90 296zM262 1104l203 280h174l203 -280h-168l-123 170l-121 -170h-168z" />
<glyph unicode="&#xfc;" horiz-adv-x="1110" d="M121 381v571h184v-559q0 -132 54 -194t161 -62q61 0 109.5 21.5t79.5 56.5t51 84.5t28.5 101t8.5 109.5v442h184v-745q0 -139 2 -207h-176l-6 141q-120 -161 -318 -161q-182 0 -272 105t-90 296zM285 1147v186h192v-186h-192zM635 1147v186h190v-186h-190z" />
<glyph unicode="&#xfd;" horiz-adv-x="1028" d="M18 952h211l308 -719l270 719h201l-381 -927q-10 -24 -26 -68.5t-28 -76.5t-31.5 -75.5t-37.5 -74.5t-45 -64t-55.5 -53.5t-67 -33.5t-82.5 -13q-125 0 -207 72l84 129q52 -48 113 -48q58 0 89.5 45t79.5 167q5 10 7 16l24 61zM432 1106l111 278h201l-158 -278h-154z" />
<glyph unicode="&#xfe;" horiz-adv-x="1142" d="M127 1366h182v-541q25 32 61 62t107.5 58t153.5 28q107 0 191 -40t135 -109t77.5 -157.5t26.5 -191.5q0 -126 -44 -225.5t-115.5 -158.5t-156 -89.5t-172.5 -30.5q-60 0 -112.5 10.5t-79 20.5t-72.5 31v-443h-180q0 298 -1 888t-1 888zM309 207q93 -76 248 -76 q140 0 227.5 96t87.5 248q0 151 -68.5 244.5t-213.5 93.5q-97 0 -165 -58t-99 -143q-17 -46 -17 -161v-244z" />
<glyph unicode="&#xff;" horiz-adv-x="1028" d="M18 952h211l308 -719l270 719h201l-381 -927q-10 -24 -26 -68.5t-28 -76.5t-31.5 -75.5t-37.5 -74.5t-45 -64t-55.5 -53.5t-67 -33.5t-82.5 -13q-125 0 -207 72l84 129q52 -48 113 -48q58 0 89.5 45t79.5 167q5 10 7 16l24 61zM250 1147v186h192v-186h-192zM600 1147v186 h191v-186h-191z" />
<glyph unicode="&#x152;" horiz-adv-x="2289" d="M100 684q0 196 91.5 360.5t250.5 260.5t349 96q163 0 299 -72t202 -194v231h858v-174h-667v-397h506v-177h-506v-442h719v-176h-910v231q-66 -122 -202.5 -194t-298.5 -72q-190 0 -349 96t-250.5 261t-91.5 362zM303 686q0 -108 35.5 -205.5t98.5 -171t156.5 -116.5 t203.5 -43q145 0 258.5 74t173 195.5t59.5 266.5q0 148 -59.5 269.5t-172.5 194.5t-259 73q-147 0 -260.5 -73t-173.5 -194.5t-60 -269.5z" />
<glyph unicode="&#x153;" horiz-adv-x="1918" d="M80 477q0 102 38 195t104.5 161t161 108t202.5 40q126 0 231 -59t170 -160q61 104 161.5 161.5t227.5 57.5q119 0 210.5 -46.5t145.5 -126t81.5 -177.5t27.5 -209h-751q4 -125 94.5 -209t216.5 -84q107 0 188.5 37t122.5 84l105 -111q-21 -24 -51 -48t-81.5 -53.5 t-126 -48t-159.5 -18.5q-135 0 -240.5 58t-169.5 164q-63 -102 -169.5 -162t-233.5 -60q-143 0 -260 68t-181.5 184t-64.5 254zM266 477q0 -88 38 -167t112.5 -130t169.5 -51q142 0 229.5 104.5t87.5 243.5q0 86 -37.5 164t-111.5 129t-168 51q-96 0 -170.5 -50.5t-112 -128 t-37.5 -165.5zM1090 559h561q-8 116 -80 191t-195 75q-127 0 -204 -78.5t-82 -187.5z" />
<glyph unicode="&#x178;" horiz-adv-x="1181" d="M18 1366h220l356 -584l356 584h211l-473 -756v-610h-199v610zM293 1528v201h207v-201h-207zM692 1528v201h207v-201h-207z" />
<glyph unicode="&#x2c6;" horiz-adv-x="839" d="M129 1104l203 280h174l203 -280h-168l-123 170l-121 -170h-168z" />
<glyph unicode="&#x2dc;" horiz-adv-x="856" d="M59 1241q41 45 102.5 78t127.5 33q49 0 92 -22t85.5 -44t90.5 -22q38 3 68 14.5t46 22.5t46 36l74 -110q-42 -46 -102 -79.5t-126 -33.5q-49 0 -93 22.5t-85.5 45t-83.5 22.5q-88 0 -166 -71z" />
<glyph unicode="&#x2000;" horiz-adv-x="891" />
<glyph unicode="&#x2001;" horiz-adv-x="1782" />
<glyph unicode="&#x2002;" horiz-adv-x="891" />
<glyph unicode="&#x2003;" horiz-adv-x="1782" />
<glyph unicode="&#x2004;" horiz-adv-x="594" />
<glyph unicode="&#x2005;" horiz-adv-x="445" />
<glyph unicode="&#x2006;" horiz-adv-x="297" />
<glyph unicode="&#x2007;" horiz-adv-x="297" />
<glyph unicode="&#x2008;" horiz-adv-x="222" />
<glyph unicode="&#x2009;" horiz-adv-x="356" />
<glyph unicode="&#x200a;" horiz-adv-x="99" />
<glyph unicode="&#x2010;" horiz-adv-x="899" d="M150 485v177h600v-177h-600z" />
<glyph unicode="&#x2011;" horiz-adv-x="899" d="M150 485v177h600v-177h-600z" />
<glyph unicode="&#x2012;" horiz-adv-x="899" d="M150 485v177h600v-177h-600z" />
<glyph unicode="&#x2013;" horiz-adv-x="1024" d="M0 485v177h1024v-177h-1024z" />
<glyph unicode="&#x2014;" horiz-adv-x="2048" d="M0 485v177h2048v-177h-2048z" />
<glyph unicode="&#x2018;" horiz-adv-x="489" d="M111 958l108 406h143l-43 -406h-208z" />
<glyph unicode="&#x2019;" horiz-adv-x="489" d="M137 958l41 406h209l-108 -406h-142z" />
<glyph unicode="&#x201a;" horiz-adv-x="507" d="M141 -174l43 403h207l-106 -403h-144z" />
<glyph unicode="&#x201c;" horiz-adv-x="837" d="M115 958l108 406h144l-43 -406h-209zM463 958l108 406h144l-43 -406h-209z" />
<glyph unicode="&#x201d;" horiz-adv-x="837" d="M141 958l41 406h209l-108 -406h-142zM489 958l41 406h209l-108 -406h-142z" />
<glyph unicode="&#x201e;" horiz-adv-x="858" d="M141 -174l43 403h207l-106 -403h-144zM489 -174l43 403h207l-106 -403h-144z" />
<glyph unicode="&#x2022;" horiz-adv-x="819" d="M154 666q0 104 76 179t180 75t180 -75t76 -179t-76 -180t-180 -76t-180 76t-76 180z" />
<glyph unicode="&#x2026;" horiz-adv-x="1533" d="M78 -2v229h231v-229h-231zM553 -2v229h231v-229h-231zM1030 -2v229h232v-229h-232z" />
<glyph unicode="&#x202f;" horiz-adv-x="356" />
<glyph unicode="&#x2039;" horiz-adv-x="665" d="M129 487l215 396h182l-207 -396l207 -395h-182z" />
<glyph unicode="&#x203a;" horiz-adv-x="665" d="M139 92l207 395l-207 396h183l215 -396l-215 -395h-183z" />
<glyph unicode="&#x205f;" horiz-adv-x="445" />
<glyph unicode="&#x20ac;" d="M59 436l41 123h131q-4 21 -4 94q0 65 4 86h-172l41 125h150q20 99 61.5 182t102.5 146.5t147 99t189 35.5q115 0 197.5 -39t152.5 -104l-103 -129q-96 100 -243 100q-121 0 -201 -76.5t-111 -214.5h451l-41 -125h-430q-2 -31 -2 -86q0 -63 2 -94h459l-41 -123h-398 q33 -138 112 -213.5t200 -75.5q144 0 243 99l103 -127q-142 -142 -350 -142q-201 0 -327.5 126t-170.5 333h-193z" />
<glyph unicode="&#x2122;" horiz-adv-x="1818" d="M61 1231v135h711v-135h-276v-649h-156v649h-279zM885 582l20 784h139l238 -381l234 381h149l25 -784h-146l-14 571l-219 -365h-64l-211 347l-16 -553h-135z" />
<glyph unicode="&#xe000;" horiz-adv-x="952" d="M0 0v952h952v-952h-952z" />
</font>
</defs>
</svg>
