<?xml version="1.0" standalone="no"?>
<!DOCTYPE svg PUBLIC "-//W3C//DTD SVG 1.1//EN" "http://www.w3.org/Graphics/SVG/1.1/DTD/svg11.dtd" >
<svg xmlns="http://www.w3.org/2000/svg">
<metadata></metadata>
<defs>
<font id="effra_lightregular" horiz-adv-x="1116" >
<font-face units-per-em="2048" ascent="1638" descent="-410" />
<missing-glyph horiz-adv-x="370" />
<glyph unicode="&#xfb01;" horiz-adv-x="1048" d="M31 856v86h188v90q0 173 97 270t268 97q179 0 288 -109l-59 -65q-59 50 -106.5 72t-120.5 22q-275 0 -275 -293v-84h592v-942h-92v856h-500v-856h-92v856h-188z" />
<glyph unicode="&#xfb02;" horiz-adv-x="1071" d="M31 856v86h188v74q0 383 402 383q192 0 309 -86v-1313h-92v1270q-88 49 -215 49q-167 0 -239.5 -71.5t-72.5 -237.5v-68h312v-86h-312v-856h-92v856h-188z" />
<glyph unicode="&#xfb03;" horiz-adv-x="1665" d="M31 856v86h188v90q0 175 74.5 271t214.5 96q161 0 256 -109l-59 -57q-82 82 -187 82q-48 0 -83.5 -13t-64.5 -44.5t-44 -89.5t-15 -142v-84h525v90q0 173 96.5 270t267.5 97q180 0 289 -109l-59 -65q-59 49 -107 71.5t-121 22.5q-274 0 -274 -293v-84h592v-942h-93v856 h-499v-856h-92v856h-525v-856h-92v856h-188z" />
<glyph unicode="&#xfb04;" horiz-adv-x="1687" d="M31 856v86h188v90q0 175 74.5 271t214.5 96q161 0 256 -109l-59 -57q-82 82 -187 82q-48 0 -83.5 -13t-64.5 -44.5t-44 -89.5t-15 -142v-84h525v74q0 383 401 383q192 0 309 -86v-1313h-92v1270q-88 49 -215 49q-166 0 -238.5 -71t-72.5 -238v-68h311v-86h-311v-856h-92 v856h-525v-856h-92v856h-188z" />
<glyph horiz-adv-x="2048" />
<glyph horiz-adv-x="2048" />
<glyph unicode="&#xd;" horiz-adv-x="2048" />
<glyph unicode=" "  horiz-adv-x="370" />
<glyph unicode="&#x09;" horiz-adv-x="370" />
<glyph unicode="&#xa0;" horiz-adv-x="370" />
<glyph unicode="!" horiz-adv-x="458" d="M164 0v133h129v-133h-129zM176 1366h107l-9 -1026h-90z" />
<glyph unicode="&#x22;" horiz-adv-x="669" d="M168 948v418h92v-418h-92zM434 948v418h92v-418h-92z" />
<glyph unicode="#" horiz-adv-x="1576" d="M125 381v78h348l92 352h-317v78h340l102 383h88l-102 -383h387l102 383h88l-102 -383h301v-78h-324l-92 -352h293v-78h-315l-103 -381h-88l103 381h-387l-103 -381h-88l103 381h-326zM561 459h387l92 352h-387z" />
<glyph unicode="$" d="M121 172l69 68q69 -86 152.5 -131.5t208.5 -49.5v584q-30 7 -47 14q-182 53 -253 130t-71 212q0 134 97 225.5t274 98.5v170h84v-170q215 -19 326 -180l-66 -58q-22 27 -40.5 45t-50 42.5t-74.5 39.5t-95 21v-514q83 -25 143 -53.5t115 -73.5t84 -112.5t29 -155.5 q0 -149 -101 -242t-270 -111v-159h-84v155q-275 7 -430 205zM276 1010q0 -53 9.5 -87.5t38 -68t83 -60.5t144.5 -55v494q-139 -7 -207 -69.5t-68 -153.5zM635 61q272 26 272 269q0 109 -59.5 171.5t-212.5 116.5v-557z" />
<glyph unicode="%" horiz-adv-x="1720" d="M84 961q0 174 84 270t221 96q139 0 223 -96t84 -270q0 -175 -84.5 -273t-222.5 -98q-137 0 -221 98t-84 273zM178 961q0 -150 62.5 -221.5t148.5 -71.5q41 0 77.5 16t67.5 48.5t49.5 91.5t18.5 137q0 79 -18 137t-49.5 89.5t-68 46.5t-77.5 15q-40 0 -75.5 -15t-67 -46.5 t-50 -89.5t-18.5 -137zM391 0l832 1290h104l-831 -1290h-105zM1024 358q0 174 84 270.5t221 96.5q139 0 223 -96.5t84 -270.5q0 -175 -84.5 -272.5t-222.5 -97.5q-137 0 -221 97.5t-84 272.5zM1118 358q0 -150 62.5 -221t148.5 -71q89 0 151 71t62 221q0 151 -61.5 220 t-151.5 69q-40 0 -75.5 -15t-67 -47t-50 -90t-18.5 -137z" />
<glyph unicode="&#x26;" horiz-adv-x="1292" d="M113 330q0 139 77.5 243t223.5 197l-58 72q-104 130 -104 268q0 115 86.5 202t232.5 87q123 0 197 -51t129 -168l-72 -43q-51 101 -109 138.5t-141 37.5q-104 0 -163.5 -60t-59.5 -141q0 -67 34 -133t108 -150l446 -495l182 246l74 -54l-195 -260l240 -266h-123l-176 190 q-89 -104 -189.5 -163.5t-236.5 -59.5q-185 0 -294 102.5t-109 260.5zM219 334q0 -119 82 -197t221 -78q78 0 148 30t115 69.5t96 99.5l-406 444q-134 -82 -195 -165t-61 -203z" />
<glyph unicode="'" horiz-adv-x="362" d="M135 948v418h92v-418h-92z" />
<glyph unicode="(" horiz-adv-x="573" d="M145 629q0 140 24 276t62.5 241t73 177t68.5 123h88q-40 -81 -55 -111.5t-52 -124t-54 -165t-32.5 -184.5t-15.5 -232q0 -118 15.5 -231t33 -186t53.5 -165t52 -126t55 -111h-88q-34 51 -68.5 123.5t-73 177.5t-62.5 241.5t-24 276.5z" />
<glyph unicode=")" horiz-adv-x="573" d="M113 -190q39 77 55 111t52 126t53.5 165t33 186t15.5 231q0 119 -15.5 232t-32.5 184.5t-54 165t-52 124t-55 111.5h88q34 -51 68.5 -123t72.5 -177t62 -241t24 -276t-24 -276.5t-62 -241.5t-72.5 -177.5t-68.5 -123.5h-88z" />
<glyph unicode="*" horiz-adv-x="1028" d="M145 897l306 164l-306 164l43 75l295 -184l-12 346h86l-12 -346l295 184l43 -75l-305 -164l305 -164l-43 -76l-295 185l12 -347h-86l12 347l-295 -185z" />
<glyph unicode="+" d="M147 610v92h365v355h92v-355h365v-92h-361v-356h-94v356h-367z" />
<glyph unicode="," horiz-adv-x="446" d="M139 -160l66 160h-49v141h135v-141l-90 -160h-62z" />
<glyph unicode="-" horiz-adv-x="894" d="M166 530v93h563v-93h-563z" />
<glyph unicode="." horiz-adv-x="448" d="M154 -4v143h139v-143h-139z" />
<glyph unicode="/" horiz-adv-x="768" d="M61 -33l545 1436h101l-545 -1436h-101z" />
<glyph unicode="0" d="M84 655q0 315 126 493.5t347 178.5t347 -178.5t126 -493.5q0 -316 -126 -498t-347 -182t-347 182t-126 498zM188 655q0 -279 95.5 -432t271.5 -153q179 0 275 152.5t96 432.5q0 279 -95.5 429.5t-275.5 150.5q-177 0 -272 -150.5t-95 -429.5z" />
<glyph unicode="1" d="M229 1118l336 189h99v-1217h243v-90h-585v90h243v1114l-295 -160z" />
<glyph unicode="2" d="M160 0v90q0 101 56 185t159 169q27 23 78.5 64.5t68.5 56.5q73 59 121.5 104t95 100t69.5 111.5t23 114.5q0 103 -69.5 171.5t-202.5 68.5q-53 0 -99 -11.5t-76 -26.5t-60 -40.5t-45.5 -43.5t-36.5 -46l-74 51q20 35 50.5 67.5t77 66.5t114.5 54.5t147 20.5 q183 0 282 -94.5t99 -239.5q0 -45 -10.5 -87.5t-24.5 -76t-42 -72t-50 -63.5t-63.5 -62t-65.5 -57.5t-72 -58.5q-144 -114 -182 -149q-83 -72 -121.5 -134.5t-38.5 -140.5h690v-92h-798z" />
<glyph unicode="3" d="M115 102l61 78q31 -25 50.5 -38.5t62.5 -36.5t98 -34.5t121 -11.5q158 0 248 84t90 230q0 148 -83 219.5t-218 71.5q-64 0 -148 -25l-39 68l416 497h-567v90h692v-88l-401 -465q34 9 67 9q169 0 275 -101t106 -276q0 -99 -35 -177.5t-96 -128t-141 -75t-174 -25.5 q-77 0 -143 13.5t-115.5 39.5t-72.5 41.5t-54 40.5z" />
<glyph unicode="4" d="M127 299v90l623 905h102v-905h149v-90h-149v-299h-96v299h-629zM229 389h527v764z" />
<glyph unicode="5" d="M121 98l59 78q71 -53 146.5 -85t173.5 -32q158 0 253 89t95 231q0 45 -8 86.5t-29 84t-53.5 74t-87.5 51t-125 19.5q-93 0 -155 -20.5t-122 -57.5l-49 37l109 641h575v-92h-502l-75 -471q103 55 231 55q181 0 289 -101t108 -306q0 -179 -122.5 -295.5t-333.5 -116.5 q-214 0 -377 131z" />
<glyph unicode="6" d="M154 563q0 374 134.5 567t387.5 193q83 0 150 -26.5t106 -59.5l-51 -76q-88 70 -213 70q-103 0 -182 -44.5t-126.5 -122.5t-73.5 -172.5t-32 -207.5q54 50 142 86.5t206 36.5q191 0 291 -110.5t100 -315.5q0 -102 -36.5 -184t-96 -130.5t-128 -74t-138.5 -25.5 q-440 0 -440 596zM252 510q0 -71 10.5 -135t36 -122.5t63 -101t95.5 -67.5t131 -25q53 0 105.5 20t98.5 57.5t74.5 101t28.5 141.5q0 58 -7.5 104t-28 90t-54 73.5t-89 47t-130.5 17.5q-202 0 -332 -136q-2 -14 -2 -65z" />
<glyph unicode="7" d="M156 1202v92h809v-90q-113 -192 -290.5 -580t-246.5 -624h-111q100 297 262.5 657t272.5 545h-696z" />
<glyph unicode="8" d="M117 319q0 59 21.5 112t52.5 90.5t77 72t84 55t84 41.5q-62 30 -102.5 56.5t-77.5 64t-54.5 87t-17.5 112.5q0 139 99 228t274 89q173 0 273 -87t100 -214q0 -225 -264 -334q96 -36 157 -77q174 -118 174 -296q0 -65 -25 -125t-74.5 -112t-138 -83.5t-202.5 -31.5 t-202.5 31.5t-138 83.5t-74.5 112t-25 125zM221 326q0 -56 20 -102.5t53 -77t77.5 -51t90.5 -29.5t95 -9t95.5 9t90 29.5t76.5 51t52.5 77t19.5 102.5q0 54 -28.5 104t-78.5 90t-110.5 71t-130.5 54q-144 -47 -233 -129.5t-89 -189.5zM283 1010q0 -186 274 -275 q135 46 204.5 115.5t69.5 175.5q0 94 -73 152.5t-201 58.5q-129 0 -201.5 -61t-72.5 -166z" />
<glyph unicode="9" d="M113 913q0 102 36.5 184t96 130.5t128 74t138.5 25.5q440 0 440 -596q0 -374 -134.5 -567t-387.5 -193q-83 0 -150 26.5t-106 59.5l51 76q88 -70 213 -70q103 0 182 44.5t126.5 122.5t73.5 172.5t32 207.5q-54 -50 -142 -86.5t-206 -36.5q-191 0 -291 110.5t-100 315.5z M211 915q0 -74 13 -129t45 -103t95 -73.5t156 -25.5q203 0 332 135q2 14 2 65q0 71 -10.5 135t-36 122.5t-63 101t-95.5 67.5t-131 25q-53 0 -105.5 -20t-98.5 -57.5t-74.5 -101t-28.5 -141.5z" />
<glyph unicode=":" horiz-adv-x="448" d="M166 -4v143h139v-143h-139zM166 803v143h139v-143h-139z" />
<glyph unicode=";" horiz-adv-x="448" d="M152 -160l65 160h-49v141h135v-141l-90 -160h-61zM166 803v143h139v-143h-139z" />
<glyph unicode="&#x3c;" d="M150 616v78l776 389l43 -84l-695 -344l695 -344l-41 -84z" />
<glyph unicode="=" d="M147 424v92h822v-92h-822zM147 778v92h822v-92h-822z" />
<glyph unicode="&#x3e;" d="M147 311l695 344l-695 344l41 84l779 -389v-78l-777 -389z" />
<glyph unicode="?" horiz-adv-x="1015" d="M90 1204q69 86 175.5 140.5t238.5 54.5q196 0 306 -90t110 -234q0 -49 -13 -92t-31.5 -74.5t-55.5 -68t-67 -60.5t-85 -65q-44 -32 -71 -57t-55 -61.5t-41.5 -83.5t-13.5 -105v-68h-90v78q0 50 8.5 93t28 79t37.5 62.5t50.5 55t53 44.5t58.5 43q44 32 71 55.5t57 59 t44 78t14 93.5q0 106 -87.5 166t-227.5 60q-114 0 -196 -40t-152 -126zM379 0v133h129v-133h-129z" />
<glyph unicode="@" horiz-adv-x="1953" d="M115 594q0 158 46 290.5t126 227t189.5 160.5t236.5 97.5t266 31.5q189 0 347 -52t273 -150t179.5 -249t64.5 -340q0 -143 -23.5 -257t-61 -185t-87.5 -117.5t-99.5 -65t-101.5 -18.5q-34 0 -66 7t-66 24t-59.5 52.5t-35.5 86.5q-66 -88 -159.5 -127t-174.5 -39 q-69 0 -128 15t-108.5 47.5t-77.5 89.5t-28 135q0 146 102.5 239t311.5 93q112 0 262 -19v54q0 136 -71 192.5t-218 56.5q-158 0 -278 -100l-55 72q50 46 141 84.5t199 38.5q189 0 284 -77.5t96 -252.5v-430q0 -89 35.5 -122.5t100.5 -33.5q51 0 96 30t84 93t61.5 174.5 t22.5 259.5q0 170 -57.5 305t-160.5 220.5t-241 130.5t-303 45q-114 0 -219.5 -23.5t-205 -78t-173 -135.5t-118 -204.5t-44.5 -275.5q0 -87 16 -166t38 -134t56 -107.5t59 -81.5t58 -62l-67 -63q-106 91 -185 252.5t-79 361.5zM676 258q0 -92 61 -142t172 -50 q131 0 233.5 79.5t102.5 184.5v151q-143 21 -266 21q-59 0 -107 -9t-79 -23.5t-53.5 -36t-34.5 -42t-19 -47t-8.5 -45t-1.5 -41.5z" />
<glyph unicode="A" horiz-adv-x="1298" d="M41 0l559 1366h98l559 -1366h-112l-178 440h-643l-177 -440h-106zM360 532h570l-285 709z" />
<glyph unicode="B" horiz-adv-x="1189" d="M176 0v1366h453q98 0 172 -27t117.5 -74.5t64.5 -106.5t21 -128q0 -114 -69 -202.5t-177 -108.5q47 -8 88 -21t86 -40t76.5 -63.5t52 -95t20.5 -130.5q0 -85 -27 -150.5t-73 -106.5t-113 -66.5t-140 -35.5t-161 -10h-391zM274 92h269q51 0 90 2t86.5 8.5t82.5 18t70 32 t57 49.5t36 71.5t14 95.5q0 71 -25.5 125t-64.5 86t-94.5 52t-108 27t-111.5 7h-301v-574zM274 758h299q58 0 114 15.5t105 46t79 83.5t30 121q0 63 -20 110t-50.5 73t-76 42t-87.5 20.5t-94 4.5h-299v-516z" />
<glyph unicode="C" horiz-adv-x="1376" d="M115 684q0 199 81.5 361.5t233 258t344.5 95.5q91 0 172 -22.5t133 -52.5t96 -70.5t63.5 -65.5t33.5 -49l-74 -52q-45 59 -70 84q-139 136 -350 136q-128 0 -234 -48t-176 -132t-108.5 -198t-38.5 -245q0 -176 66.5 -317t195.5 -224.5t301 -83.5q73 0 140 20.5 t107.5 43.5t82.5 62.5t53 53t31 40.5l74 -52q-14 -24 -33.5 -49t-63.5 -65.5t-96 -70.5t-133 -52.5t-172 -22.5q-194 0 -345 93.5t-232.5 256.5t-81.5 367z" />
<glyph unicode="D" horiz-adv-x="1427" d="M176 0v1366h373q171 0 309 -40.5t241 -122t158.5 -213.5t55.5 -306q0 -140 -36.5 -253t-103 -193t-161.5 -133.5t-211 -79t-252 -25.5h-373zM274 92h295q299 0 469 149.5t170 442.5q0 292 -173 441t-482 149h-279v-1182z" />
<glyph unicode="E" horiz-adv-x="1140" d="M176 0v1366h819v-92h-721v-516h564v-92h-564v-574h775v-92h-873z" />
<glyph unicode="F" horiz-adv-x="1069" d="M176 0v1366h819v-92h-721v-516h564v-92h-564v-666h-98z" />
<glyph unicode="G" horiz-adv-x="1468" d="M115 684q0 199 82.5 361.5t235 258t345.5 95.5q90 0 170.5 -22.5t132 -52.5t95.5 -70.5t63 -65.5t33 -49l-74 -52q-55 73 -103 112q-132 108 -307 108q-173 0 -303 -83t-197 -223.5t-67 -316.5t66 -317t194 -224.5t297 -83.5q263 0 426 117v379h-364v92h463v-512 q-81 -72 -211.5 -120t-313.5 -48q-295 0 -479 200t-184 517z" />
<glyph unicode="H" horiz-adv-x="1409" d="M176 0v1366h98v-608h861v608h98v-1366h-98v666h-861v-666h-98z" />
<glyph unicode="I" horiz-adv-x="450" d="M176 0v1366h98v-1366h-98z" />
<glyph unicode="J" horiz-adv-x="964" d="M43 145l74 62q122 -148 289 -148q143 0 218.5 84t75.5 277v946h99v-963q0 -436 -400 -436q-225 0 -356 178z" />
<glyph unicode="K" horiz-adv-x="1177" d="M176 0v1366h98v-713l672 713h121l-516 -551l586 -815h-117l-541 741l-205 -219v-522h-98z" />
<glyph unicode="L" horiz-adv-x="1105" d="M176 0v1366h98v-1274h775v-92h-873z" />
<glyph unicode="M" horiz-adv-x="1603" d="M160 0l61 1366h107l475 -811l485 811h94l62 -1366h-98l-48 1212l-471 -782h-63l-459 780l-47 -1210h-98z" />
<glyph unicode="N" horiz-adv-x="1427" d="M176 0v1366h103l876 -1219v1219h96v-1366h-102l-877 1202v-1202h-96z" />
<glyph unicode="O" horiz-adv-x="1585" d="M115 682q0 148 51.5 280.5t140.5 228.5t215.5 152t270.5 56t270.5 -56t215.5 -152t140 -228.5t51 -280.5q0 -198 -87 -362t-242.5 -258.5t-347.5 -94.5q-144 0 -270.5 55.5t-215.5 151t-140.5 228t-51.5 280.5zM219 682q0 -173 70.5 -314.5t202.5 -225t301 -83.5 q127 0 235 49t181.5 133t115 198t41.5 243t-41.5 243.5t-115 199t-181.5 133.5t-235 49q-169 0 -301 -84t-202.5 -226t-70.5 -315z" />
<glyph unicode="P" horiz-adv-x="1185" d="M176 0v1366h420q129 0 223 -29.5t148 -84t79 -123.5t25 -156t-25 -156t-79 -123.5t-148 -84t-223 -29.5h-322v-580h-98zM274 672h351q340 0 340 301t-340 301h-351v-602z" />
<glyph unicode="Q" horiz-adv-x="1585" d="M115 682q0 148 51.5 280.5t140.5 228.5t215.5 152t270.5 56t270.5 -56t215.5 -152t140 -228.5t51 -280.5q0 -177 -69.5 -325t-194.5 -248l178 -207l-71 -60l-183 213q-157 -88 -337 -88q-144 0 -270.5 55.5t-215.5 151t-140.5 228t-51.5 280.5zM219 682 q0 -173 70.5 -314.5t202.5 -225t301 -83.5q149 0 276 68l-190 225l71 60l197 -232q105 87 162 217t57 285q0 129 -41.5 243.5t-115 199t-181.5 133.5t-235 49q-169 0 -301 -84t-202.5 -226t-70.5 -315z" />
<glyph unicode="R" horiz-adv-x="1220" d="M176 0v1366h412q252 0 367.5 -104t115.5 -283q0 -140 -72 -240.5t-215 -134.5l326 -604h-113l-317 592h-406v-592h-98zM274 684h355q338 0 338 295q0 147 -89 221t-262 74h-342v-590z" />
<glyph unicode="S" horiz-adv-x="1155" d="M96 180l72 70q156 -191 403 -191q165 0 264 75t99 214q0 60 -21 108t-50.5 79t-80.5 57.5t-91.5 41t-102.5 32.5q-40 10 -63.5 17t-61.5 18.5t-61 21.5t-55.5 25t-53 31t-45 37t-39 45t-28 53t-19.5 64t-6 75q0 147 114.5 246.5t309.5 99.5q270 0 409 -189l-69 -59 q-117 158 -345 158q-156 0 -237.5 -76.5t-81.5 -183.5q0 -46 12.5 -84t45 -66.5t57.5 -47.5t81 -38.5t82 -27.5t92 -25q10 -3 15 -4q65 -17 115.5 -35t106.5 -51.5t92.5 -74.5t60.5 -104.5t24 -142.5q0 -173 -133.5 -277t-335.5 -104q-160 0 -286.5 62t-188.5 151z" />
<glyph unicode="T" horiz-adv-x="1261" d="M51 1278v88h1159v-88h-530v-1278h-98v1278h-531z" />
<glyph unicode="U" horiz-adv-x="1376" d="M166 545v821h98v-770q0 -98 11.5 -175.5t40.5 -147t76.5 -115.5t122 -72.5t173.5 -26.5t173.5 26.5t122 72.5t76.5 115.5t40.5 147t11.5 175.5v770h98v-821q0 -578 -522 -578t-522 578z" />
<glyph unicode="V" horiz-adv-x="1290" d="M37 1366h113l499 -1245l498 1245h106l-559 -1366h-98z" />
<glyph unicode="W" horiz-adv-x="1789" d="M61 1366h111l328 -1227l346 1186h121l329 -1178l326 1219h107l-383 -1366h-109l-334 1180l-350 -1180h-115z" />
<glyph unicode="X" horiz-adv-x="1204" d="M35 0l510 711l-469 655h119l405 -573l410 573h114l-467 -649l512 -717h-118l-449 635l-452 -635h-115z" />
<glyph unicode="Y" horiz-adv-x="1105" d="M33 1366h119l403 -643l403 643h115l-471 -739v-627h-98v627z" />
<glyph unicode="Z" horiz-adv-x="1261" d="M100 0v90l920 1184h-875v92h1002v-90l-920 -1184h934v-92h-1061z" />
<glyph unicode="[" horiz-adv-x="598" d="M176 -190v1636h361v-88h-265v-1460h265v-88h-361z" />
<glyph unicode="\" horiz-adv-x="768" d="M61 1403h101l545 -1436h-101z" />
<glyph unicode="]" horiz-adv-x="598" d="M61 -102h265v1460h-265v88h361v-1636h-361v88z" />
<glyph unicode="^" horiz-adv-x="1081" d="M131 631l375 735h72l374 -735h-102l-311 624l-310 -624h-98z" />
<glyph unicode="_" horiz-adv-x="1048" d="M12 -158h1024v-92h-1024v92z" />
<glyph unicode="`" horiz-adv-x="741" d="M250 1372h119l123 -262h-86z" />
<glyph unicode="a" horiz-adv-x="1007" d="M98 256q0 70 23 128t70.5 103.5t128.5 71t188 25.5q136 0 268 -21v53q0 149 -70 208t-217 59q-172 0 -290 -99l-49 64q48 46 136.5 82.5t200.5 36.5q188 0 284.5 -80.5t96.5 -255.5v-434q0 -105 2 -140q1 -10 2 -29t2 -28h-88q-2 12 -2 41q-2 27 -2 117 q-67 -98 -162.5 -140.5t-189.5 -42.5q-64 0 -119 13t-105 43t-79 87.5t-29 137.5zM197 256q0 -99 66 -148t177 -49q136 0 237 89.5t101 199.5v133q-102 25 -272 25q-309 0 -309 -250z" />
<glyph unicode="b" horiz-adv-x="1097" d="M141 35v1331h92v-592q115 193 347 193q106 0 188 -37.5t133 -105t77 -157.5t26 -198q0 -154 -69.5 -267.5t-187 -170t-266.5 -56.5q-99 0 -190.5 17t-149.5 43zM231 98q122 -37 252 -37q187 0 304.5 106.5t117.5 303.5q0 86 -18.5 157.5t-57.5 129t-105 89.5t-155 32 q-82 0 -149 -36.5t-106.5 -93.5t-61 -121t-21.5 -126v-404z" />
<glyph unicode="c" horiz-adv-x="1013" d="M94 471q0 211 135.5 353.5t337.5 142.5q230 0 361 -166l-70 -53q-102 133 -291 133q-162 0 -268 -120t-106 -290q0 -169 108 -289.5t266 -120.5q100 0 179 36.5t128 99.5l66 -58q-63 -75 -159 -119.5t-214 -44.5q-204 0 -338.5 142t-134.5 354z" />
<glyph unicode="d" horiz-adv-x="1101" d="M94 463q0 227 135.5 365.5t350.5 138.5q92 0 200 -45q42 -19 86 -45v489h90v-1169q0 -105 2 -140q0 -33 3 -57h-91q-2 18 -2 53q-2 31 -2 111q-31 -55 -82 -94q-115 -95 -266 -95q-106 0 -188 37.5t-133 104.5t-77 154.5t-26 191.5zM193 461q0 -82 18.5 -152t57 -126.5 t105 -89t154.5 -32.5q81 0 148.5 32t107 80t61 98.5t21.5 93.5v411q-37 33 -71 51q-94 54 -217 54q-76 0 -143 -24.5t-122 -73.5t-87.5 -132t-32.5 -190z" />
<glyph unicode="e" horiz-adv-x="1093" d="M94 471q0 135 57 248.5t162 180.5t236 67q200 0 325 -137t125 -384h-802q5 -164 110 -274.5t268 -110.5q89 0 179 37.5t139 98.5l65 -56q-60 -77 -165.5 -121.5t-217.5 -44.5q-212 0 -346.5 138t-134.5 358zM199 526h700q-19 172 -110 263.5t-240 91.5q-148 0 -245 -102 t-105 -253z" />
<glyph unicode="f" horiz-adv-x="645" d="M31 856v86h188v109q0 168 75 258t216 90q159 0 254 -109l-59 -57q-82 82 -187 82q-49 0 -84 -13t-64 -45t-44 -92.5t-15 -150.5v-72h312v-86h-312v-856h-92v856h-188z" />
<glyph unicode="g" horiz-adv-x="1093" d="M94 463q0 225 148.5 364.5t373.5 139.5q96 0 187 -19.5t153 -46.5v-881q0 -454 -448 -454q-119 0 -204 33.5t-132 74.5l53 70q111 -90 287 -90q99 0 169 26.5t109.5 77t56.5 113t17 143.5v144q-36 -55 -84 -92q-110 -91 -262 -91q-106 0 -188 37.5t-133 104.5t-77 154.5 t-26 191.5zM193 461q0 -82 18.5 -152t57 -126.5t105 -89t154.5 -32.5q68 0 126 22.5t96 57t65 76.5t39 80t12 68v473q-24 10 -67 20q-99 23 -185 23q-178 0 -299.5 -112.5t-121.5 -307.5z" />
<glyph unicode="h" horiz-adv-x="1089" d="M141 0v1366h92v-612q19 36 47.5 69.5t72 68t107 55t136.5 20.5q193 0 276.5 -106.5t83.5 -307.5v-553h-92v522q0 104 -18 174.5t-55 110.5t-86.5 57t-120.5 17q-85 0 -154.5 -36.5t-111 -95t-63.5 -127t-22 -137.5v-485h-92z" />
<glyph unicode="i" horiz-adv-x="382" d="M127 1141v133h129v-133h-129zM145 0v942h93v-942h-93z" />
<glyph unicode="j" horiz-adv-x="382" d="M-195 -336l50 68q37 -32 67 -46t70 -14q27 0 47.5 6t41.5 24t34 49t21.5 83t8.5 123v985h93v-971q0 -96 -10.5 -162t-37.5 -117.5t-77 -76.5t-125 -25q-57 0 -106 21.5t-77 52.5zM127 1141v133h129v-133h-129z" />
<glyph unicode="k" horiz-adv-x="929" d="M141 0v1366h92v-895l484 471h121l-361 -350l432 -592h-110l-387 526l-179 -172v-354h-92z" />
<glyph unicode="l" horiz-adv-x="374" d="M141 0v1366h92v-1366h-92z" />
<glyph unicode="m" horiz-adv-x="1734" d="M141 942h86q6 -59 6 -197q20 38 46.5 71.5t69 70t105 58.5t136.5 22q132 0 205 -56.5t104 -167.5v2q17 32 47.5 67.5t76 71.5t111 59.5t136.5 23.5q181 0 256.5 -105.5t75.5 -308.5v-553h-93v522q0 202 -61.5 280.5t-190.5 78.5q-137 0 -237 -103t-100 -235v-543h-93v522 q0 138 -29.5 218t-82 110.5t-137.5 30.5q-80 0 -146.5 -36.5t-107.5 -95t-63.5 -127.5t-22.5 -137v-485h-93v743q0 158 -4 199z" />
<glyph unicode="n" horiz-adv-x="1093" d="M141 942h86q6 -59 6 -197q20 37 47.5 71t71 70.5t108 58.5t140.5 22q193 0 277 -106.5t84 -307.5v-553h-93v522q0 104 -18 174.5t-55 110.5t-86.5 57t-120.5 17q-69 0 -127.5 -24t-99 -64t-69 -92t-41.5 -106.5t-13 -109.5v-485h-93v743q0 158 -4 199z" />
<glyph unicode="o" horiz-adv-x="1159" d="M94 471q0 134 65 248t177 181t244 67t243.5 -67t176.5 -181t65 -248t-65 -248t-176.5 -181t-243.5 -67t-244 67t-177 181t-65 248zM190 471q0 -167 115 -289.5t275 -122.5q165 0 277 120.5t112 291.5q0 167 -114.5 289.5t-274.5 122.5q-165 0 -277.5 -120.5 t-112.5 -291.5z" />
<glyph unicode="p" horiz-adv-x="1101" d="M141 942h86q9 -88 9 -174q114 199 348 199q140 0 237.5 -67.5t142 -178.5t44.5 -256q0 -218 -135.5 -354t-342.5 -136q-148 0 -294 84v-469h-91v1153q0 158 -4 199zM236 164q1 0 17 -11.5t23 -16t26.5 -16.5t34 -18t38.5 -15t46 -14t50.5 -8.5t58.5 -3.5q163 0 271 107.5 t108 296.5q0 86 -18.5 158.5t-57.5 131.5t-105.5 92.5t-154.5 33.5q-115 0 -195.5 -65t-117.5 -165q-24 -65 -24 -192v-295z" />
<glyph unicode="q" horiz-adv-x="1097" d="M94 463q0 225 148.5 364.5t373.5 139.5q96 0 187 -19.5t153 -46.5v-1311h-92v568q-35 -54 -82 -92q-106 -91 -264 -91q-106 0 -188 37.5t-133 104.5t-77 154.5t-26 191.5zM193 461q0 -82 18.5 -152t57 -126.5t105 -89t154.5 -32.5q70 0 129 23.5t96.5 58.5t64 77.5 t37.5 79t11 65.5v473q-24 10 -67 20q-99 23 -185 23q-178 0 -299.5 -112.5t-121.5 -307.5z" />
<glyph unicode="r" horiz-adv-x="690" d="M141 942h86q6 -59 6 -207q19 36 45.5 69.5t68.5 69t103 57t132 21.5q45 0 77 -14l-26 -88q-23 10 -70 10q-94 0 -170 -56t-115.5 -142t-39.5 -181v-481h-93v743q0 158 -4 199z" />
<glyph unicode="s" horiz-adv-x="946" d="M84 119l59 65q123 -123 318 -123q122 0 202 46t80 131q0 89 -70 132q-49 29 -200 65q-8 1 -25 5l-24 6q-72 16 -121 34t-91.5 48t-63.5 75t-21 108q0 122 100.5 189t245.5 67q106 0 191.5 -39.5t142.5 -106.5l-64 -57q-109 119 -268 119q-254 0 -254 -176q0 -29 9 -52.5 t35 -42t42 -29.5t62.5 -25t61 -18t71.5 -17l12 -3q55 -12 94.5 -23t87 -33t77.5 -49t50.5 -69.5t20.5 -95.5q0 -68 -32.5 -122t-87 -86.5t-120 -49.5t-135.5 -17q-241 0 -385 144z" />
<glyph unicode="t" horiz-adv-x="727" d="M37 856v86h188v311h92v-311h312v-86h-312v-545q0 -81 12 -133t37 -77t52.5 -33.5t68.5 -8.5q51 0 88 19t74 63l58 -55q-43 -57 -96 -84t-134 -27q-60 0 -103.5 14t-78.5 48t-52.5 97t-17.5 155v567h-188z" />
<glyph unicode="u" horiz-adv-x="1081" d="M133 389v553h92v-522q0 -138 32.5 -218t90.5 -110.5t152 -30.5q85 0 153.5 36.5t108.5 95.5t61 127t21 137v485h92v-743q0 -158 4 -199h-86q-6 59 -6 197q-16 -29 -34.5 -55.5t-51 -58.5t-69.5 -54.5t-91 -38t-115 -15.5q-192 0 -273 106t-81 308z" />
<glyph unicode="v" horiz-adv-x="948" d="M20 942h105l354 -829l352 829h97l-410 -942h-86z" />
<glyph unicode="w" horiz-adv-x="1392" d="M31 942h102l262 -821l271 821h88l264 -836l250 836h94l-301 -942h-100l-261 803l-264 -803h-88z" />
<glyph unicode="x" horiz-adv-x="933" d="M31 0l372 504l-333 438h114l283 -371l274 371h103l-326 -438l385 -504h-115l-333 436l-322 -436h-102z" />
<glyph unicode="y" horiz-adv-x="946" d="M33 942h104l363 -817l313 817h100l-462 -1165q-16 -39 -32 -69t-44.5 -66t-69 -56t-90.5 -20q-104 0 -170 63l47 66q47 -47 123 -47q58 0 92 39.5t68 126.5l78 198z" />
<glyph unicode="z" horiz-adv-x="985" d="M125 0v86l631 774h-606v82h716v-86l-635 -772h650v-84h-756z" />
<glyph unicode="{" horiz-adv-x="544" d="M63 592v74q74 10 117.5 63t48.5 121l29 348q8 93 31 152t69 96h105q-95 -95 -105 -225l-26 -369q-13 -178 -158 -223q145 -45 158 -219l26 -375q10 -130 105 -225h-105q-46 37 -69 95.5t-31 151.5l-29 351q-5 68 -48.5 121t-117.5 63z" />
<glyph unicode="|" horiz-adv-x="440" d="M176 -336v2042h88v-2042h-88z" />
<glyph unicode="}" horiz-adv-x="544" d="M82 -190q94 94 104 225l27 375q13 174 158 219q-145 45 -158 223l-27 369q-10 131 -104 225h104q46 -38 69.5 -96.5t31.5 -151.5l28 -348q5 -68 48.5 -121t117.5 -63v-74q-74 -10 -117.5 -63t-48.5 -121l-28 -351q-8 -92 -31.5 -150.5t-69.5 -96.5h-104z" />
<glyph unicode="~" horiz-adv-x="909" d="M98 602q1 1 11 13t20.5 23.5t30 27t40 26.5t49.5 19t60 8q34 0 64 -8t47 -16.5t53 -28.5q76 -45 135 -45q48 0 87 24.5t61 54.5l53 -63q-18 -32 -71 -68.5t-130 -36.5q-36 0 -67.5 8.5t-47 16.5t-53.5 29q-80 47 -133 47q-81 0 -149 -86z" />
<glyph unicode="&#xa1;" horiz-adv-x="458" d="M166 809v133h129v-133h-129zM176 -424l8 1026h90l9 -1026h-107z" />
<glyph unicode="&#xa2;" d="M145 643q0 197 119.5 337.5t300.5 160.5v188h84v-186q200 -8 330 -164l-70 -53q-95 123 -260 131v-828q181 12 277 136l63 -60q-57 -70 -145 -113t-195 -49v-182h-84v184q-185 17 -302.5 157.5t-117.5 340.5zM244 643q0 -156 90.5 -273t230.5 -137v822 q-142 -20 -231.5 -136.5t-89.5 -275.5z" />
<glyph unicode="&#xa3;" d="M152 645v92h141v181q0 36 2.5 68.5t12 75.5t25 78t44.5 71t67 60.5t95.5 40t128.5 15.5q164 0 299 -135l-60 -66q-94 113 -243 113q-80 0 -134.5 -25.5t-83.5 -74.5t-41 -108t-12 -138v-156h430v-92h-430v-553h639v-92h-739v645h-141z" />
<glyph unicode="&#xa4;" d="M92 315l141 138q-83 109 -83 249q0 134 81 248l-139 137l70 72l139 -137q116 92 260 92q138 0 256 -90l139 135l70 -72l-139 -135q86 -113 86 -250q0 -138 -86 -251l139 -136l-70 -73l-139 137q-115 -88 -256 -88q-148 0 -258 90l-141 -139zM242 702q0 -130 94 -224.5 t225 -94.5t225.5 94.5t94.5 224.5t-94.5 225t-225.5 95q-130 0 -224.5 -94.5t-94.5 -225.5z" />
<glyph unicode="&#xa5;" d="M72 1292h114l375 -633l377 633h111l-381 -633h297v-81h-349l-8 -15v-192h357v-82h-357v-289h-90v289h-375v82h375v192l-10 15h-365v81h312z" />
<glyph unicode="&#xa6;" horiz-adv-x="440" d="M176 -336v776h88v-776h-88zM176 930v776h88v-776h-88z" />
<glyph unicode="&#xa7;" horiz-adv-x="985" d="M160 1028q0 101 52.5 187.5t139.5 136t185 49.5q67 0 129.5 -18t93.5 -36t55 -38l-53 -80q-115 82 -227 82q-65 0 -118.5 -26t-87 -67t-51.5 -89.5t-18 -96.5q0 -47 15.5 -91t36.5 -74t53.5 -59.5t55.5 -45.5t54 -35l373 -240l-53 -81l-351 221q-48 31 -81.5 54.5 t-75 62.5t-66.5 77.5t-43 92.5t-18 114zM184 477l54 82l350 -221q48 -31 81.5 -54.5t75 -62.5t66.5 -77.5t43 -92.5t18 -114q0 -157 -106 -265t-270 -108q-176 0 -299 98l51 74q69 -45 123.5 -63.5t126.5 -18.5q71 0 125.5 25.5t86 67t47 89t15.5 96.5q0 47 -15.5 91 t-36.5 74t-53.5 60t-55.5 46t-54 35z" />
<glyph unicode="&#xa8;" horiz-adv-x="716" d="M145 1157v129h123v-129h-123zM449 1157v129h122v-129h-122z" />
<glyph unicode="&#xa9;" horiz-adv-x="1654" d="M115 684q0 147 55.5 279.5t150.5 228t227.5 151.5t280.5 56q196 0 359.5 -95t257.5 -259t94 -361t-94 -361t-257.5 -259t-359.5 -95q-148 0 -280.5 56t-227.5 151.5t-150.5 228t-55.5 279.5zM217 682q0 -172 78 -315t218.5 -227.5t313.5 -84.5t313.5 84.5t218 227.5 t77.5 315t-77.5 315t-218 227.5t-313.5 84.5t-313.5 -84.5t-218.5 -227.5t-78 -315zM451 676q0 165 110.5 277t272.5 112q99 0 181 -44.5t134 -123.5l-72 -49q-42 59 -107.5 95t-135.5 36q-121 0 -204 -87.5t-83 -215.5q0 -126 80 -213.5t207 -87.5q76 0 140.5 38t108.5 99 l66 -55q-52 -79 -135 -124.5t-180 -45.5q-167 0 -275 111t-108 278z" />
<glyph unicode="&#xaa;" horiz-adv-x="786" d="M121 895q0 95 73 152t216 57q81 0 159 -12v18q0 77 -47.5 108t-134.5 31q-111 0 -190 -65l-50 59q37 33 98.5 58.5t139.5 25.5q270 0 270 -207v-254q0 -69 4 -131h-79q-5 68 -5 70q-46 -44 -111 -65t-126 -21q-42 0 -78 8.5t-69 27t-51.5 54.5t-18.5 86zM213 895 q0 -102 139 -102q82 0 151.5 46t69.5 113v70q-65 10 -163 10q-60 0 -102 -13.5t-61 -36t-26.5 -43.5t-7.5 -44z" />
<glyph unicode="&#xab;" horiz-adv-x="921" d="M158 479l217 393h100l-215 -393l215 -393h-100zM461 479l217 393h100l-215 -393l215 -393h-100z" />
<glyph unicode="&#xac;" d="M147 616v93h822v-336h-92v243h-730z" />
<glyph unicode="&#xad;" horiz-adv-x="894" d="M178 530v93h563v-93h-563z" />
<glyph unicode="&#xae;" horiz-adv-x="1654" d="M115 684q0 147 55.5 279.5t150.5 228t227.5 151.5t280.5 56q196 0 359.5 -95t257.5 -259t94 -361t-94 -361t-257.5 -259t-359.5 -95q-148 0 -280.5 56t-227.5 151.5t-150.5 228t-55.5 279.5zM217 682q0 -172 78 -315t218.5 -227.5t313.5 -84.5t313.5 84.5t218 227.5 t77.5 315t-77.5 315t-218 227.5t-313.5 84.5t-313.5 -84.5t-218.5 -227.5t-78 -315zM606 307v748h250q119 0 181.5 -60t62.5 -153q0 -165 -160 -224l184 -311h-100l-178 301h-152v-301h-88zM694 684h160q74 0 115 41.5t41 114.5q0 139 -176 139h-140v-295z" />
<glyph unicode="&#xaf;" horiz-adv-x="722" d="M123 1182v86h477v-86h-477z" />
<glyph unicode="&#xb0;" horiz-adv-x="661" d="M63 1063q0 113 77 188.5t190 75.5q115 0 191.5 -74.5t76.5 -187.5q0 -115 -76.5 -189.5t-189.5 -74.5q-116 0 -192.5 75t-76.5 187zM152 1063q0 -73 53 -126.5t127 -53.5q72 0 125 54t53 128q0 72 -53.5 125t-126.5 53q-72 0 -125 -53.5t-53 -126.5z" />
<glyph unicode="&#xb1;" d="M147 0v92h822v-92h-822zM147 610v92h365v355h92v-355h365v-92h-361v-356h-94v356h-367z" />
<glyph unicode="&#xb2;" horiz-adv-x="737" d="M88 1200q41 52 110 89.5t154 37.5q121 0 184.5 -60t63.5 -145q0 -48 -20 -90t-58.5 -76t-72.5 -56.5t-84 -49.5q-96 -56 -121 -78q-42 -39 -43 -80h405v-82h-506v78q0 65 55 116.5t152 106.5q35 22 49 30.5t43.5 29t43 34t30.5 32.5t24 38.5t7 40.5q0 64 -46 96.5 t-114 32.5q-59 0 -110 -28t-84 -72z" />
<glyph unicode="&#xb3;" horiz-adv-x="737" d="M86 653l45 68q74 -55 176 -55q87 0 142 40.5t55 108.5q0 76 -47 111t-119 35q-44 0 -78 -11l-24 47l219 240h-318v70h430v-58l-217 -227q20 4 37 4q94 0 150.5 -60t56.5 -145q0 -103 -77.5 -167t-207.5 -64q-122 0 -223 63z" />
<glyph unicode="&#xb4;" horiz-adv-x="499" d="M129 1104l127 262h113l-154 -262h-86z" />
<glyph unicode="&#xb5;" horiz-adv-x="1081" d="M131 -410v1352h94v-522q0 -164 35 -236q36 -69 94.5 -96t145.5 -27q85 0 153.5 36.5t108.5 95.5t61 127t21 137v485h92v-743q0 -158 4 -199h-86q-6 59 -6 197q-16 -29 -34.5 -55.5t-51 -58.5t-69.5 -54.5t-91 -38t-115 -15.5q-93 0 -154 24t-108 81v-490h-94z" />
<glyph unicode="&#xb6;" horiz-adv-x="1030" d="M115 1006q0 78 27 140.5t71.5 103t105.5 67.5t125 38t134 11v-719q-70 0 -134 11t-125 37.5t-105.5 66.5t-71.5 102.5t-27 141.5zM481 -250v785q45 -7 97 -7v-778h-97zM758 -250v1616h96v-1616h-96z" />
<glyph unicode="&#xb7;" horiz-adv-x="425" d="M145 590v143h140v-143h-140z" />
<glyph unicode="&#xb8;" horiz-adv-x="694" d="M139 -408l17 70q85 -35 155 -35q73 0 113.5 26t40.5 73q0 88 -129 88q-75 0 -160 -31l12 72q5 1 20.5 6.5t26.5 8.5t30 7t43 6t52 2q93 0 142 -46.5t49 -108.5q0 -83 -65 -128.5t-169 -45.5q-98 0 -178 36z" />
<glyph unicode="&#xb9;" horiz-adv-x="737" d="M137 1182l258 125h78v-697h-90v607l-213 -103z" />
<glyph unicode="&#xba;" horiz-adv-x="792" d="M84 1022q0 129 87.5 217t225.5 88q137 0 224.5 -88.5t87.5 -216.5q0 -130 -87.5 -217.5t-224.5 -87.5q-139 0 -226 87.5t-87 217.5zM170 1022q0 -89 58.5 -158t168.5 -69q109 0 167.5 69t58.5 158t-58.5 157t-167.5 68q-110 0 -168.5 -68t-58.5 -157z" />
<glyph unicode="&#xbb;" horiz-adv-x="921" d="M168 86l215 393l-215 393h100l217 -393l-217 -393h-100zM471 86l215 393l-215 393h100l217 -393l-217 -393h-100z" />
<glyph unicode="&#xbc;" horiz-adv-x="1720" d="M80 1182l258 125h78v-697h-90v607l-213 -103zM367 0l831 1290h105l-832 -1290h-104zM1034 158v71l387 469h92v-467h89v-73h-89v-154h-81v154h-398zM1130 231h302v367z" />
<glyph unicode="&#xbd;" horiz-adv-x="1720" d="M100 1182l258 125h78v-697h-90v607l-213 -103zM307 0l832 1290h104l-831 -1290h-105zM1063 592q41 52 110 89.5t154 37.5q121 0 184.5 -60t63.5 -145q0 -48 -20 -90t-58.5 -76t-73 -56.5t-84.5 -49.5q-95 -55 -121 -79q-42 -37 -42 -79h405v-82h-506v78q0 65 55 116.5 t152 106.5q35 22 49 30.5t43.5 29t43 34t30.5 32.5t24 38.5t7 40.5q0 64 -46 96.5t-114 32.5q-59 0 -110.5 -28t-84.5 -72z" />
<glyph unicode="&#xbe;" horiz-adv-x="1720" d="M92 653l45 68q74 -55 176 -55q87 0 142 40.5t55 108.5q0 76 -47 111t-119 35q-44 0 -78 -11l-24 47l219 240h-318v70h430v-58l-217 -227q20 4 37 4q94 0 150.5 -60t56.5 -145q0 -103 -77.5 -167t-207.5 -64q-122 0 -223 63zM412 0l831 1290h105l-832 -1290h-104z M1059 158v71l387 469h92v-467h88v-73h-88v-154h-82v154h-397zM1155 231h301v367z" />
<glyph unicode="&#xbf;" horiz-adv-x="1015" d="M141 -133q0 49 13 92t31.5 74.5t55.5 68t67 60.5t85 65q43 32 70.5 57t55 62t41 84t13.5 105v67h91v-78q0 -50 -8.5 -93t-28 -79t-37.5 -62.5t-50.5 -55t-53 -44.5t-58.5 -43q-44 -32 -71 -55.5t-57 -59t-44 -78t-14 -93.5q0 -106 87.5 -166t227.5 -60q114 0 196 40 t152 126l66 -63q-69 -86 -175.5 -140.5t-238.5 -54.5q-196 0 -306 90t-110 234zM553 809v133h129v-133h-129z" />
<glyph unicode="&#xc0;" horiz-adv-x="1298" d="M41 0l559 1366h98l559 -1366h-112l-178 440h-643l-177 -440h-106zM360 532h570l-285 709zM455 1774h125l153 -289h-90z" />
<glyph unicode="&#xc1;" horiz-adv-x="1298" d="M41 0l559 1366h98l559 -1366h-112l-178 440h-643l-177 -440h-106zM360 532h570l-285 709zM571 1485l152 289h131l-192 -289h-91z" />
<glyph unicode="&#xc2;" horiz-adv-x="1298" d="M41 0l559 1366h98l559 -1366h-112l-178 440h-643l-177 -440h-106zM350 1485l240 289h108l232 -289h-107l-182 221l-182 -221h-109zM360 532h570l-285 709z" />
<glyph unicode="&#xc3;" horiz-adv-x="1298" d="M41 0l559 1366h98l559 -1366h-112l-178 440h-643l-177 -440h-106zM305 1616q97 104 209 104q43 0 83 -15t65 -33t58 -33t64 -15q41 0 75 17t77 59l57 -62q-95 -102 -209 -102q-55 0 -101.5 24t-87.5 48t-81 24q-79 0 -158 -76zM360 532h570l-285 709z" />
<glyph unicode="&#xc4;" horiz-adv-x="1298" d="M41 0l559 1366h98l559 -1366h-112l-178 440h-643l-177 -440h-106zM360 532h570l-285 709zM412 1556v142h135v-142h-135zM752 1556v142h135v-142h-135z" />
<glyph unicode="&#xc5;" horiz-adv-x="1298" d="M41 0l532 1303q-63 24 -101 77t-38 123q0 96 60.5 155.5t152.5 59.5q93 0 155 -59.5t62 -151.5q0 -73 -38.5 -126.5t-102.5 -77.5l534 -1303h-112l-178 440h-643l-177 -440h-106zM360 532h570l-285 709zM514 1503q0 -57 38 -97t99 -40q55 0 94 40t39 101q0 59 -39.5 97 t-97.5 38q-56 0 -94.5 -39t-38.5 -100z" />
<glyph unicode="&#xc6;" horiz-adv-x="1945" d="M20 0l912 1366h868v-92h-721v-516h563v-92h-563v-574h774v-92h-872v399h-584l-264 -399h-113zM459 492h522v788z" />
<glyph unicode="&#xc7;" horiz-adv-x="1376" d="M115 684q0 199 81.5 361.5t233 258t344.5 95.5q91 0 172 -22.5t133 -52.5t96 -70.5t63.5 -65.5t33.5 -49l-74 -52q-45 59 -70 84q-139 136 -350 136q-128 0 -234 -48t-176 -132t-108.5 -198t-38.5 -245q0 -176 66.5 -317t195.5 -224.5t301 -83.5q73 0 140 20.5 t107.5 43.5t82.5 62.5t53 53t31 40.5l74 -52q-14 -24 -33.5 -49t-63.5 -65.5t-96 -70.5t-133 -52.5t-172 -22.5q-194 0 -345 93.5t-232.5 256.5t-81.5 367zM553 -408l16 80q83 -34 162 -34q160 0 160 92q0 80 -133 80q-83 0 -168 -31l14 82q92 30 182 30q98 0 149.5 -48 t51.5 -109q0 -84 -68.5 -131t-175.5 -47q-105 0 -190 36z" />
<glyph unicode="&#xc8;" horiz-adv-x="1140" d="M176 0v1366h819v-92h-721v-516h564v-92h-564v-574h775v-92h-873zM422 1774h125l153 -289h-90z" />
<glyph unicode="&#xc9;" horiz-adv-x="1140" d="M176 0v1366h819v-92h-721v-516h564v-92h-564v-574h775v-92h-873zM514 1485l152 289h131l-193 -289h-90z" />
<glyph unicode="&#xca;" horiz-adv-x="1140" d="M176 0v1366h819v-92h-721v-516h564v-92h-564v-574h775v-92h-873zM301 1485l240 289h108l232 -289h-107l-182 221l-182 -221h-109z" />
<glyph unicode="&#xcb;" horiz-adv-x="1140" d="M176 0v1366h819v-92h-721v-516h564v-92h-564v-574h775v-92h-873zM348 1556v142h135v-142h-135zM688 1556v142h135v-142h-135z" />
<glyph unicode="&#xcc;" horiz-adv-x="450" d="M14 1774h125l154 -289h-90zM176 0v1366h98v-1366h-98z" />
<glyph unicode="&#xcd;" horiz-adv-x="450" d="M166 1485l151 289h132l-193 -289h-90zM176 0v1366h98v-1366h-98z" />
<glyph unicode="&#xce;" horiz-adv-x="450" d="M-59 1485l239 289h109l231 -289h-106l-183 221l-182 -221h-108zM176 0v1366h98v-1366h-98z" />
<glyph unicode="&#xcf;" horiz-adv-x="450" d="M-10 1556v142h135v-142h-135zM176 0v1366h98v-1366h-98zM330 1556v142h135v-142h-135z" />
<glyph unicode="&#xd0;" horiz-adv-x="1456" d="M41 662v86h164v618h373q171 0 309 -40.5t240.5 -122t158 -213.5t55.5 -306t-55.5 -306.5t-158 -214.5t-240.5 -122.5t-309 -40.5h-373v662h-164zM303 92h295q299 0 469 149.5t170 442.5q0 292 -173 441t-482 149h-279v-526h391v-86h-391v-570z" />
<glyph unicode="&#xd1;" horiz-adv-x="1427" d="M176 0v1366h103l876 -1219v1219h96v-1366h-102l-877 1202v-1202h-96zM373 1616q97 104 209 104q43 0 83 -15t65 -33t58 -33t64 -15q41 0 75 17t77 59l57 -62q-95 -102 -209 -102q-55 0 -101.5 24t-87.5 48t-81 24q-79 0 -158 -76z" />
<glyph unicode="&#xd2;" horiz-adv-x="1585" d="M115 682q0 148 51.5 280.5t140.5 228.5t215.5 152t270.5 56t270.5 -56t215.5 -152t140 -228.5t51 -280.5q0 -198 -87 -362t-242.5 -258.5t-347.5 -94.5q-144 0 -270.5 55.5t-215.5 151t-140.5 228t-51.5 280.5zM219 682q0 -173 70.5 -314.5t202.5 -225t301 -83.5 q127 0 235 49t181.5 133t115 198t41.5 243t-41.5 243.5t-115 199t-181.5 133.5t-235 49q-169 0 -301 -84t-202.5 -226t-70.5 -315zM612 1774h125l154 -289h-90z" />
<glyph unicode="&#xd3;" horiz-adv-x="1585" d="M115 682q0 148 51.5 280.5t140.5 228.5t215.5 152t270.5 56t270.5 -56t215.5 -152t140 -228.5t51 -280.5q0 -198 -87 -362t-242.5 -258.5t-347.5 -94.5q-144 0 -270.5 55.5t-215.5 151t-140.5 228t-51.5 280.5zM219 682q0 -173 70.5 -314.5t202.5 -225t301 -83.5 q127 0 235 49t181.5 133t115 198t41.5 243t-41.5 243.5t-115 199t-181.5 133.5t-235 49q-169 0 -301 -84t-202.5 -226t-70.5 -315zM735 1485l152 289h131l-193 -289h-90z" />
<glyph unicode="&#xd4;" horiz-adv-x="1585" d="M115 682q0 148 51.5 280.5t140.5 228.5t215.5 152t270.5 56t270.5 -56t215.5 -152t140 -228.5t51 -280.5q0 -198 -87 -362t-242.5 -258.5t-347.5 -94.5q-144 0 -270.5 55.5t-215.5 151t-140.5 228t-51.5 280.5zM219 682q0 -173 70.5 -314.5t202.5 -225t301 -83.5 q127 0 235 49t181.5 133t115 198t41.5 243t-41.5 243.5t-115 199t-181.5 133.5t-235 49q-169 0 -301 -84t-202.5 -226t-70.5 -315zM494 1485l239 289h109l231 -289h-106l-183 221l-182 -221h-108z" />
<glyph unicode="&#xd5;" horiz-adv-x="1585" d="M115 682q0 148 51.5 280.5t140.5 228.5t215.5 152t270.5 56t270.5 -56t215.5 -152t140 -228.5t51 -280.5q0 -198 -87 -362t-242.5 -258.5t-347.5 -94.5q-144 0 -270.5 55.5t-215.5 151t-140.5 228t-51.5 280.5zM219 682q0 -173 70.5 -314.5t202.5 -225t301 -83.5 q127 0 235 49t181.5 133t115 198t41.5 243t-41.5 243.5t-115 199t-181.5 133.5t-235 49q-169 0 -301 -84t-202.5 -226t-70.5 -315zM453 1616q97 104 209 104q43 0 83 -15t65 -33t58 -33t64 -15q41 0 74.5 17t76.5 59l58 -62q-95 -102 -209 -102q-55 0 -101.5 24t-87.5 48 t-81 24q-79 0 -158 -76z" />
<glyph unicode="&#xd6;" horiz-adv-x="1585" d="M115 682q0 148 51.5 280.5t140.5 228.5t215.5 152t270.5 56t270.5 -56t215.5 -152t140 -228.5t51 -280.5q0 -198 -87 -362t-242.5 -258.5t-347.5 -94.5q-144 0 -270.5 55.5t-215.5 151t-140.5 228t-51.5 280.5zM219 682q0 -173 70.5 -314.5t202.5 -225t301 -83.5 q127 0 235 49t181.5 133t115 198t41.5 243t-41.5 243.5t-115 199t-181.5 133.5t-235 49q-169 0 -301 -84t-202.5 -226t-70.5 -315zM553 1556v142h135v-142h-135zM893 1556v142h135v-142h-135z" />
<glyph unicode="&#xd7;" d="M217 381l277 274l-277 277l66 65l276 -276l275 276l65 -65l-276 -275l276 -276l-65 -66l-275 277l-276 -277z" />
<glyph unicode="&#xd8;" horiz-adv-x="1585" d="M117 682q0 148 51.5 280.5t140.5 228.5t215.5 152t270.5 56q195 0 360 -105l121 172l74 -47l-125 -176q118 -99 183 -244t65 -317q0 -148 -51.5 -280.5t-140.5 -228t-215.5 -151t-270.5 -55.5q-215 0 -383 117l-131 -184l-74 47l135 192q-107 100 -166 239.5t-59 303.5z M221 682q0 -287 176 -463l705 1000q-141 88 -307 88q-169 0 -301 -84t-202.5 -226t-70.5 -315zM465 162q140 -103 330 -103q127 0 235 49t181.5 133t115 198t41.5 243q0 146 -52 271t-147 212z" />
<glyph unicode="&#xd9;" horiz-adv-x="1376" d="M166 545v821h98v-770q0 -98 11.5 -175.5t40.5 -147t76.5 -115.5t122 -72.5t173.5 -26.5t173.5 26.5t122 72.5t76.5 115.5t40.5 147t11.5 175.5v770h98v-821q0 -578 -522 -578t-522 578zM522 1774h125l154 -289h-90z" />
<glyph unicode="&#xda;" horiz-adv-x="1376" d="M166 545v821h98v-770q0 -98 11.5 -175.5t40.5 -147t76.5 -115.5t122 -72.5t173.5 -26.5t173.5 26.5t122 72.5t76.5 115.5t40.5 147t11.5 175.5v770h98v-821q0 -578 -522 -578t-522 578zM588 1485l151 289h131l-192 -289h-90z" />
<glyph unicode="&#xdb;" horiz-adv-x="1376" d="M166 545v821h98v-770q0 -98 11.5 -175.5t40.5 -147t76.5 -115.5t122 -72.5t173.5 -26.5t173.5 26.5t122 72.5t76.5 115.5t40.5 147t11.5 175.5v770h98v-821q0 -578 -522 -578t-522 578zM397 1485l240 289h108l232 -289h-107l-182 221l-182 -221h-109z" />
<glyph unicode="&#xdc;" horiz-adv-x="1376" d="M166 545v821h98v-770q0 -98 11.5 -175.5t40.5 -147t76.5 -115.5t122 -72.5t173.5 -26.5t173.5 26.5t122 72.5t76.5 115.5t40.5 147t11.5 175.5v770h98v-821q0 -578 -522 -578t-522 578zM451 1556v142h135v-142h-135zM791 1556v142h135v-142h-135z" />
<glyph unicode="&#xdd;" horiz-adv-x="1105" d="M33 1366h119l403 -643l403 643h115l-471 -739v-627h-98v627zM492 1485l151 289h131l-192 -289h-90z" />
<glyph unicode="&#xde;" horiz-adv-x="1183" d="M176 0v1366h98v-270h322q129 0 223 -29.5t148 -84.5t79 -124t25 -156t-25 -156t-79 -123.5t-148 -84t-223 -29.5h-322v-309h-98zM274 401h351q340 0 340 301q0 302 -340 302h-351v-603z" />
<glyph unicode="&#xdf;" horiz-adv-x="1140" d="M141 0v979q0 420 381 420q142 0 227 -73t85 -179q0 -56 -19.5 -104.5t-48.5 -81t-63.5 -66t-63.5 -60.5t-48.5 -64t-19.5 -77t20.5 -69t53.5 -45.5t75.5 -32.5t87 -28.5t87 -35.5t75.5 -51.5t53.5 -78t20.5 -113.5q0 -122 -84.5 -199.5t-238.5 -77.5q-170 0 -307 92 l51 76q109 -84 252 -84q110 0 167.5 50.5t57.5 138.5q0 61 -25.5 103t-66.5 64.5t-90 38.5t-98.5 32.5t-90.5 40t-66.5 67t-25.5 106.5q0 60 27 111.5t65 88.5t76 72t65 79t27 94q0 76 -54 128t-165 52q-83 0 -140.5 -25t-88.5 -73t-44.5 -107.5t-13.5 -140.5v-967h-92z" />
<glyph unicode="&#xe0;" horiz-adv-x="1007" d="M98 256q0 70 23 128t70.5 103.5t128.5 71t188 25.5q136 0 268 -21v53q0 149 -70 208t-217 59q-172 0 -290 -99l-49 64q48 46 136.5 82.5t200.5 36.5q188 0 284.5 -80.5t96.5 -255.5v-434q0 -105 2 -140q1 -10 2 -29t2 -28h-88q-2 12 -2 41q-2 27 -2 117 q-67 -98 -162.5 -140.5t-189.5 -42.5q-64 0 -119 13t-105 43t-79 87.5t-29 137.5zM197 256q0 -99 66 -148t177 -49q136 0 237 89.5t101 199.5v133q-102 25 -272 25q-309 0 -309 -250zM352 1372h119l123 -262h-86z" />
<glyph unicode="&#xe1;" horiz-adv-x="1007" d="M98 256q0 70 23 128t70.5 103.5t128.5 71t188 25.5q136 0 268 -21v53q0 149 -70 208t-217 59q-172 0 -290 -99l-49 64q48 46 136.5 82.5t200.5 36.5q188 0 284.5 -80.5t96.5 -255.5v-434q0 -105 2 -140q1 -10 2 -29t2 -28h-88q-2 12 -2 41q-2 27 -2 117 q-67 -98 -162.5 -140.5t-189.5 -42.5q-64 0 -119 13t-105 43t-79 87.5t-29 137.5zM197 256q0 -99 66 -148t177 -49q136 0 237 89.5t101 199.5v133q-102 25 -272 25q-309 0 -309 -250zM430 1104l127 262h113l-154 -262h-86z" />
<glyph unicode="&#xe2;" horiz-adv-x="1007" d="M98 256q0 70 23 128t70.5 103.5t128.5 71t188 25.5q136 0 268 -21v53q0 149 -70 208t-217 59q-172 0 -290 -99l-49 64q48 46 136.5 82.5t200.5 36.5q188 0 284.5 -80.5t96.5 -255.5v-434q0 -105 2 -140q1 -10 2 -29t2 -28h-88q-2 12 -2 41q-2 27 -2 117 q-67 -98 -162.5 -140.5t-189.5 -42.5q-64 0 -119 13t-105 43t-79 87.5t-29 137.5zM197 256q0 -99 66 -148t177 -49q136 0 237 89.5t101 199.5v133q-102 25 -272 25q-309 0 -309 -250zM266 1104l188 262h90l189 -262h-98l-136 192l-135 -192h-98z" />
<glyph unicode="&#xe3;" horiz-adv-x="1007" d="M98 256q0 70 23 128t70.5 103.5t128.5 71t188 25.5q136 0 268 -21v53q0 149 -70 208t-217 59q-172 0 -290 -99l-49 64q48 46 136.5 82.5t200.5 36.5q188 0 284.5 -80.5t96.5 -255.5v-434q0 -105 2 -140q1 -10 2 -29t2 -28h-88q-2 12 -2 41q-2 27 -2 117 q-67 -98 -162.5 -140.5t-189.5 -42.5q-64 0 -119 13t-105 43t-79 87.5t-29 137.5zM190 1212q40 46 92.5 73.5t106.5 27.5q43 0 81 -15t61.5 -33t54.5 -33t61 -15q37 0 69.5 17.5t74.5 59.5l47 -61q-39 -45 -91.5 -71.5t-107.5 -26.5q-42 0 -79.5 15t-61 33t-55 33t-62.5 15 q-38 0 -70.5 -15t-72.5 -55zM197 256q0 -99 66 -148t177 -49q136 0 237 89.5t101 199.5v133q-102 25 -272 25q-309 0 -309 -250z" />
<glyph unicode="&#xe4;" horiz-adv-x="1007" d="M98 256q0 70 23 128t70.5 103.5t128.5 71t188 25.5q136 0 268 -21v53q0 149 -70 208t-217 59q-172 0 -290 -99l-49 64q48 46 136.5 82.5t200.5 36.5q188 0 284.5 -80.5t96.5 -255.5v-434q0 -105 2 -140q1 -10 2 -29t2 -28h-88q-2 12 -2 41q-2 27 -2 117 q-67 -98 -162.5 -140.5t-189.5 -42.5q-64 0 -119 13t-105 43t-79 87.5t-29 137.5zM197 256q0 -99 66 -148t177 -49q136 0 237 89.5t101 199.5v133q-102 25 -272 25q-309 0 -309 -250zM297 1157v129h123v-129h-123zM601 1157v129h122v-129h-122z" />
<glyph unicode="&#xe5;" horiz-adv-x="1007" d="M98 256q0 70 23 128t70.5 103.5t128.5 71t188 25.5q136 0 268 -21v53q0 149 -70 208t-217 59q-172 0 -290 -99l-49 64q48 46 136.5 82.5t200.5 36.5q188 0 284.5 -80.5t96.5 -255.5v-434q0 -105 2 -140q1 -10 2 -29t2 -28h-88q-2 12 -2 41q-2 27 -2 117 q-67 -98 -162.5 -140.5t-189.5 -42.5q-64 0 -119 13t-105 43t-79 87.5t-29 137.5zM197 256q0 -99 66 -148t177 -49q136 0 237 89.5t101 199.5v133q-102 25 -272 25q-309 0 -309 -250zM303 1303q0 87 56.5 142.5t142.5 55.5q87 0 143.5 -55t56.5 -141q0 -87 -56.5 -144 t-141.5 -57q-86 0 -143.5 56.5t-57.5 142.5zM377 1303q0 -55 36.5 -92t90.5 -37q52 0 88.5 37.5t36.5 93.5q0 55 -36.5 91t-90.5 36t-89.5 -36t-35.5 -93z" />
<glyph unicode="&#xe6;" horiz-adv-x="1767" d="M98 252q0 140 101.5 221.5t308.5 81.5q55 0 268 -16v77q0 149 -70 208t-217 59q-172 0 -290 -99l-49 64q48 46 136.5 82.5t200.5 36.5q297 0 363 -205q62 96 158 150.5t215 54.5q201 0 325.5 -134t124.5 -380h-803q5 -164 111 -278t268 -114q89 0 179 37.5t139 98.5 l65 -56q-60 -77 -165.5 -121.5t-217.5 -44.5q-140 0 -247 61.5t-168 172.5q-87 -129 -185.5 -181.5t-224.5 -52.5q-46 0 -89 7.5t-87 27t-76.5 49.5t-53 79.5t-20.5 113.5zM197 252q0 -98 65.5 -145.5t175.5 -47.5q138 0 239 89.5t101 199.5v109q-129 20 -272 20 q-76 0 -134 -15t-90 -38t-52.5 -54.5t-26.5 -59t-6 -58.5zM872 532h701q-19 171 -109.5 260t-240.5 89q-149 0 -246 -99.5t-105 -249.5z" />
<glyph unicode="&#xe7;" horiz-adv-x="1013" d="M94 471q0 211 135.5 353.5t337.5 142.5q230 0 361 -166l-70 -53q-102 133 -291 133q-162 0 -268 -120t-106 -290q0 -169 108 -289.5t266 -120.5q100 0 179 36.5t128 99.5l66 -58q-63 -75 -159 -119.5t-214 -44.5q-204 0 -338.5 142t-134.5 354zM360 -408l17 70 q85 -35 155 -35q74 0 114 26t40 73q0 88 -129 88q-75 0 -160 -31l12 72q5 1 20.5 6.5t26.5 8.5t30 7t43 6t52 2q93 0 142 -46.5t49 -108.5q0 -83 -65 -128.5t-169 -45.5q-98 0 -178 36z" />
<glyph unicode="&#xe8;" horiz-adv-x="1093" d="M94 471q0 135 57 248.5t162 180.5t236 67q200 0 325 -137t125 -384h-802q5 -164 110 -274.5t268 -110.5q89 0 179 37.5t139 98.5l65 -56q-60 -77 -165.5 -121.5t-217.5 -44.5q-212 0 -346.5 138t-134.5 358zM199 526h700q-19 172 -110 263.5t-240 91.5q-148 0 -245 -102 t-105 -253zM400 1372h119l123 -262h-86z" />
<glyph unicode="&#xe9;" horiz-adv-x="1093" d="M94 471q0 135 57 248.5t162 180.5t236 67q200 0 325 -137t125 -384h-802q5 -164 110 -274.5t268 -110.5q89 0 179 37.5t139 98.5l65 -56q-60 -77 -165.5 -121.5t-217.5 -44.5q-212 0 -346.5 138t-134.5 358zM199 526h700q-19 172 -110 263.5t-240 91.5q-148 0 -245 -102 t-105 -253zM492 1104l126 262h113l-153 -262h-86z" />
<glyph unicode="&#xea;" horiz-adv-x="1093" d="M94 471q0 135 57 248.5t162 180.5t236 67q200 0 325 -137t125 -384h-802q5 -164 110 -274.5t268 -110.5q89 0 179 37.5t139 98.5l65 -56q-60 -77 -165.5 -121.5t-217.5 -44.5q-212 0 -346.5 138t-134.5 358zM199 526h700q-19 172 -110 263.5t-240 91.5q-148 0 -245 -102 t-105 -253zM315 1104l188 262h90l189 -262h-98l-136 192l-135 -192h-98z" />
<glyph unicode="&#xeb;" horiz-adv-x="1093" d="M94 471q0 135 57 248.5t162 180.5t236 67q200 0 325 -137t125 -384h-802q5 -164 110 -274.5t268 -110.5q89 0 179 37.5t139 98.5l65 -56q-60 -77 -165.5 -121.5t-217.5 -44.5q-212 0 -346.5 138t-134.5 358zM199 526h700q-19 172 -110 263.5t-240 91.5q-148 0 -245 -102 t-105 -253zM332 1157v129h123v-129h-123zM635 1157v129h123v-129h-123z" />
<glyph unicode="&#xec;" horiz-adv-x="382" d="M8 1372h119l123 -262h-86zM145 0v942h93v-942h-93z" />
<glyph unicode="&#xed;" horiz-adv-x="382" d="M133 1104l127 262h113l-154 -262h-86zM145 0v942h93v-942h-93z" />
<glyph unicode="&#xee;" horiz-adv-x="382" d="M-41 1104l188 262h90l189 -262h-98l-136 192l-135 -192h-98zM145 0v942h93v-942h-93z" />
<glyph unicode="&#xef;" horiz-adv-x="382" d="M-20 1157v129h122v-129h-122zM145 0v942h93v-942h-93zM283 1157v129h123v-129h-123z" />
<glyph unicode="&#xf0;" horiz-adv-x="1153" d="M94 444q0 194 137 331.5t351 137.5q186 0 344 -102q-78 278 -328 414l-127 -160l-61 47l116 148q-113 41 -219 47l10 84q138 -9 267 -62l116 148l62 -47l-107 -134q193 -107 298.5 -302t105.5 -439q0 -146 -39.5 -260t-108.5 -184t-157 -106t-191 -36q-95 0 -179.5 31.5 t-149.5 90t-102.5 149.5t-37.5 204zM195 440q0 -169 105.5 -275t260.5 -106q77 0 146 28.5t127 85.5t92.5 154.5t34.5 223.5q0 61 -11 147q-159 127 -368 127q-166 0 -276.5 -107.5t-110.5 -277.5z" />
<glyph unicode="&#xf1;" horiz-adv-x="1093" d="M141 942h86q6 -59 6 -197q20 37 47.5 71t71 70.5t108 58.5t140.5 22q193 0 277 -106.5t84 -307.5v-553h-93v522q0 104 -18 174.5t-55 110.5t-86.5 57t-120.5 17q-69 0 -127.5 -24t-99 -64t-69 -92t-41.5 -106.5t-13 -109.5v-485h-93v743q0 158 -4 199zM223 1212 q40 46 92 73.5t106 27.5q43 0 81 -15t61.5 -33t55 -33t61.5 -15q36 0 68.5 17.5t74.5 59.5l47 -61q-39 -45 -91.5 -71.5t-107.5 -26.5q-42 0 -79.5 15t-61 33t-55 33t-62.5 15q-38 0 -70.5 -15t-72.5 -55z" />
<glyph unicode="&#xf2;" horiz-adv-x="1159" d="M94 471q0 134 65 248t177 181t244 67t243.5 -67t176.5 -181t65 -248t-65 -248t-176.5 -181t-243.5 -67t-244 67t-177 181t-65 248zM190 471q0 -167 115 -289.5t275 -122.5q165 0 277 120.5t112 291.5q0 167 -114.5 289.5t-274.5 122.5q-165 0 -277.5 -120.5 t-112.5 -291.5zM418 1372h119l123 -262h-86z" />
<glyph unicode="&#xf3;" horiz-adv-x="1159" d="M94 471q0 134 65 248t177 181t244 67t243.5 -67t176.5 -181t65 -248t-65 -248t-176.5 -181t-243.5 -67t-244 67t-177 181t-65 248zM190 471q0 -167 115 -289.5t275 -122.5q165 0 277 120.5t112 291.5q0 167 -114.5 289.5t-274.5 122.5q-165 0 -277.5 -120.5 t-112.5 -291.5zM524 1104l127 262h113l-154 -262h-86z" />
<glyph unicode="&#xf4;" horiz-adv-x="1159" d="M94 471q0 134 65 248t177 181t244 67t243.5 -67t176.5 -181t65 -248t-65 -248t-176.5 -181t-243.5 -67t-244 67t-177 181t-65 248zM190 471q0 -167 115 -289.5t275 -122.5q165 0 277 120.5t112 291.5q0 167 -114.5 289.5t-274.5 122.5q-165 0 -277.5 -120.5 t-112.5 -291.5zM342 1104l188 262h90l189 -262h-98l-136 192l-135 -192h-98z" />
<glyph unicode="&#xf5;" horiz-adv-x="1159" d="M94 471q0 134 65 248t177 181t244 67t243.5 -67t176.5 -181t65 -248t-65 -248t-176.5 -181t-243.5 -67t-244 67t-177 181t-65 248zM190 471q0 -167 115 -289.5t275 -122.5q165 0 277 120.5t112 291.5q0 167 -114.5 289.5t-274.5 122.5q-165 0 -277.5 -120.5 t-112.5 -291.5zM258 1212q40 46 92.5 73.5t106.5 27.5q43 0 81 -15t61.5 -33t54.5 -33t61 -15q36 0 68.5 17.5t74.5 59.5l47 -61q-39 -45 -91.5 -71.5t-106.5 -26.5q-42 0 -79.5 15t-61 33t-55 33t-62.5 15q-39 0 -71.5 -15t-72.5 -55z" />
<glyph unicode="&#xf6;" horiz-adv-x="1159" d="M94 471q0 134 65 248t177 181t244 67t243.5 -67t176.5 -181t65 -248t-65 -248t-176.5 -181t-243.5 -67t-244 67t-177 181t-65 248zM190 471q0 -167 115 -289.5t275 -122.5q165 0 277 120.5t112 291.5q0 167 -114.5 289.5t-274.5 122.5q-165 0 -277.5 -120.5 t-112.5 -291.5zM364 1157v129h123v-129h-123zM668 1157v129h122v-129h-122z" />
<glyph unicode="&#xf7;" d="M147 608v92h822v-92h-822zM496 285v125h125v-125h-125zM496 899v125h125v-125h-125z" />
<glyph unicode="&#xf8;" horiz-adv-x="1159" d="M94 471q0 134 65 248t177 181t244 67q136 0 249 -72l103 147l67 -43l-106 -149q81 -71 126.5 -168.5t45.5 -210.5q0 -134 -65 -248t-176.5 -181t-243.5 -67q-140 0 -250 70l-101 -141l-67 43l102 145q-80 71 -125 168.5t-45 210.5zM190 471q0 -87 33.5 -166.5 t93.5 -136.5l461 655q-91 60 -198 60q-165 0 -277.5 -120.5t-112.5 -291.5zM381 119q88 -60 199 -60q165 0 277 120.5t112 291.5q0 87 -34 166t-95 137z" />
<glyph unicode="&#xf9;" horiz-adv-x="1081" d="M133 389v553h92v-522q0 -138 32.5 -218t90.5 -110.5t152 -30.5q85 0 153.5 36.5t108.5 95.5t61 127t21 137v485h92v-743q0 -158 4 -199h-86q-6 59 -6 197q-16 -29 -34.5 -55.5t-51 -58.5t-69.5 -54.5t-91 -38t-115 -15.5q-192 0 -273 106t-81 308zM373 1372h119l123 -262 h-86z" />
<glyph unicode="&#xfa;" horiz-adv-x="1081" d="M133 389v553h92v-522q0 -138 32.5 -218t90.5 -110.5t152 -30.5q85 0 153.5 36.5t108.5 95.5t61 127t21 137v485h92v-743q0 -158 4 -199h-86q-6 59 -6 197q-16 -29 -34.5 -55.5t-51 -58.5t-69.5 -54.5t-91 -38t-115 -15.5q-192 0 -273 106t-81 308zM473 1104l127 262h113 l-154 -262h-86z" />
<glyph unicode="&#xfb;" horiz-adv-x="1081" d="M133 389v553h92v-522q0 -138 32.5 -218t90.5 -110.5t152 -30.5q85 0 153.5 36.5t108.5 95.5t61 127t21 137v485h92v-743q0 -158 4 -199h-86q-6 59 -6 197q-16 -29 -34.5 -55.5t-51 -58.5t-69.5 -54.5t-91 -38t-115 -15.5q-192 0 -273 106t-81 308zM303 1104l188 262h90 l189 -262h-98l-136 192l-135 -192h-98z" />
<glyph unicode="&#xfc;" horiz-adv-x="1081" d="M133 389v553h92v-522q0 -138 32.5 -218t90.5 -110.5t152 -30.5q85 0 153.5 36.5t108.5 95.5t61 127t21 137v485h92v-743q0 -158 4 -199h-86q-6 59 -6 197q-16 -29 -34.5 -55.5t-51 -58.5t-69.5 -54.5t-91 -38t-115 -15.5q-192 0 -273 106t-81 308zM317 1157v129h123v-129 h-123zM621 1157v129h122v-129h-122z" />
<glyph unicode="&#xfd;" horiz-adv-x="946" d="M33 942h104l363 -817l313 817h100l-462 -1165q-16 -39 -32 -69t-44.5 -66t-69 -56t-90.5 -20q-104 0 -170 63l47 66q47 -47 123 -47q58 0 92 39.5t68 126.5l78 198zM403 1104l127 262h113l-154 -262h-86z" />
<glyph unicode="&#xfe;" horiz-adv-x="1101" d="M143 1364h93v-596q114 199 348 199q140 0 237.5 -67.5t142 -178.5t44.5 -256q0 -218 -135.5 -354t-342.5 -136q-148 0 -294 84v-469h-91zM236 164q1 0 17 -11.5t23 -16t26.5 -16.5t34 -18t38.5 -15t46 -14t50.5 -8.5t58.5 -3.5q163 0 271 107.5t108 296.5 q0 86 -18.5 158.5t-57.5 131.5t-105.5 92.5t-154.5 33.5q-115 0 -195.5 -65t-117.5 -165q-24 -65 -24 -192v-295z" />
<glyph unicode="&#xff;" horiz-adv-x="946" d="M33 942h104l363 -817l313 817h100l-462 -1165q-16 -39 -32 -69t-44.5 -66t-69 -56t-90.5 -20q-104 0 -170 63l47 66q47 -47 123 -47q58 0 92 39.5t68 126.5l78 198zM262 1157v129h123v-129h-123zM565 1157v129h123v-129h-123z" />
<glyph unicode="&#x152;" horiz-adv-x="2336" d="M115 682q0 148 51.5 280.5t140.5 228.5t215.5 152t270.5 56q196 0 356 -98t223 -269v334h819v-92h-721v-516h564v-92h-564v-574h775v-92h-873v330q-65 -168 -225 -265.5t-354 -97.5q-144 0 -270.5 55.5t-215.5 151t-140.5 228t-51.5 280.5zM219 682q0 -173 70.5 -314.5 t202.5 -225t301 -83.5q127 0 235 49t181.5 133t115 198t41.5 243t-41.5 243.5t-115 199t-181.5 133.5t-235 49q-169 0 -301 -84t-202.5 -226t-70.5 -315z" />
<glyph unicode="&#x153;" horiz-adv-x="1968" d="M94 471q0 134 65 248t177 181t244 67q142 0 256.5 -74.5t177.5 -200.5q55 126 162.5 200.5t246.5 74.5q200 0 325.5 -137t125.5 -384h-803q5 -164 110.5 -274.5t268.5 -110.5q89 0 178.5 37.5t138.5 98.5l66 -56q-60 -77 -165.5 -121.5t-217.5 -44.5q-152 0 -266 72 t-170 201q-61 -125 -177 -199t-257 -74q-132 0 -244 67t-177 181t-65 248zM190 471q0 -167 115 -289.5t275 -122.5q165 0 277 120.5t112 291.5q0 167 -114.5 289.5t-274.5 122.5q-165 0 -277.5 -120.5t-112.5 -291.5zM1073 526h701q-19 172 -110.5 263.5t-240.5 91.5 q-148 0 -245 -102t-105 -253z" />
<glyph unicode="&#x178;" horiz-adv-x="1105" d="M33 1366h119l403 -643l403 643h115l-471 -739v-627h-98v627zM324 1556v142h135v-142h-135zM664 1556v142h135v-142h-135z" />
<glyph unicode="&#x2c6;" horiz-adv-x="716" d="M125 1104l188 262h90l189 -262h-98l-136 192l-135 -192h-98z" />
<glyph unicode="&#x2dc;" horiz-adv-x="716" d="M35 1212q40 46 92 73.5t106 27.5q43 0 81 -15t61.5 -33t55 -33t61.5 -15q36 0 68.5 17.5t74.5 59.5l47 -61q-39 -45 -91.5 -71.5t-107.5 -26.5q-42 0 -79.5 15t-61 33t-55 33t-62.5 15q-38 0 -70.5 -15t-72.5 -55z" />
<glyph unicode="&#x2000;" horiz-adv-x="887" />
<glyph unicode="&#x2001;" horiz-adv-x="1774" />
<glyph unicode="&#x2002;" horiz-adv-x="887" />
<glyph unicode="&#x2003;" horiz-adv-x="1774" />
<glyph unicode="&#x2004;" horiz-adv-x="591" />
<glyph unicode="&#x2005;" horiz-adv-x="443" />
<glyph unicode="&#x2006;" horiz-adv-x="295" />
<glyph unicode="&#x2007;" horiz-adv-x="295" />
<glyph unicode="&#x2008;" horiz-adv-x="221" />
<glyph unicode="&#x2009;" horiz-adv-x="354" />
<glyph unicode="&#x200a;" horiz-adv-x="98" />
<glyph unicode="&#x2010;" horiz-adv-x="894" d="M166 530v93h563v-93h-563z" />
<glyph unicode="&#x2011;" horiz-adv-x="894" d="M166 530v93h563v-93h-563z" />
<glyph unicode="&#x2012;" horiz-adv-x="894" d="M166 530v93h563v-93h-563z" />
<glyph unicode="&#x2013;" horiz-adv-x="1024" d="M0 528v93h1024v-93h-1024z" />
<glyph unicode="&#x2014;" horiz-adv-x="2048" d="M0 528v93h2048v-93h-2048z" />
<glyph unicode="&#x2018;" horiz-adv-x="395" d="M131 1001l59 365h80l-37 -365h-102z" />
<glyph unicode="&#x2019;" horiz-adv-x="395" d="M150 1001l36 365h103l-60 -365h-79z" />
<glyph unicode="&#x201a;" horiz-adv-x="395" d="M147 -219l37 364h103l-60 -364h-80z" />
<glyph unicode="&#x201c;" horiz-adv-x="679" d="M143 1001l60 365h80l-37 -365h-103zM428 1001l59 365h80l-37 -365h-102z" />
<glyph unicode="&#x201d;" horiz-adv-x="679" d="M162 1001l37 365h102l-59 -365h-80zM446 1001l37 365h103l-60 -365h-80z" />
<glyph unicode="&#x201e;" horiz-adv-x="679" d="M147 -219l37 364h103l-60 -364h-80zM434 -219l37 364h102l-59 -364h-80z" />
<glyph unicode="&#x2022;" horiz-adv-x="696" d="M129 606q0 91 64 155t155 64t155 -64t64 -155t-64 -155t-155 -64t-155 64t-64 155z" />
<glyph unicode="&#x2026;" horiz-adv-x="1390" d="M166 -4v143h139v-143h-139zM637 -4v143h139v-143h-139zM1108 -4v143h139v-143h-139z" />
<glyph unicode="&#x202f;" horiz-adv-x="354" />
<glyph unicode="&#x2039;" horiz-adv-x="618" d="M145 479l217 393h101l-215 -393l215 -393h-101z" />
<glyph unicode="&#x203a;" horiz-adv-x="618" d="M156 86l215 393l-215 393h100l217 -393l-217 -393h-100z" />
<glyph unicode="&#x205f;" horiz-adv-x="443" />
<glyph unicode="&#x20ac;" d="M51 459l31 82h158q-4 23 -4 106q0 79 4 101h-189l31 81h168q17 105 55 192.5t97 157t146 109t193 39.5q178 0 334 -135l-61 -72q-2 1 -19 16t-29.5 24.5t-38.5 25t-51 25t-61 17t-74 7.5q-150 0 -251 -105t-136 -301h549l-31 -81h-528q-4 -22 -4 -101q0 -40 4 -106h559 l-31 -82h-518q35 -191 137 -295.5t250 -104.5q158 0 273 115l61 -72q-17 -17 -40.5 -34.5t-66 -43t-102.5 -41.5t-125 -16q-107 0 -193.5 38.5t-145.5 107.5t-96 155.5t-54 190.5h-201z" />
<glyph unicode="&#x2122;" horiz-adv-x="1902" d="M51 1284v82h697v-82h-302v-702h-90v702h-305zM918 582l18 784h100l271 -455l262 455h114l21 -784h-90l-19 667l-264 -446h-57l-256 430l-19 -651h-81z" />
<glyph unicode="&#xe000;" horiz-adv-x="942" d="M0 0v942h942v-942h-942z" />
</font>
</defs>
</svg>
